VERSION	0.00.00	1.03.00
FES_MODE	0
BPM_DEF	163.000	163.000	163.000	163.000
MET_DEF	4	4
RESOLUTION	384
CLK_DEF	384
COMPATIBLE_CODE	MA2

BPM	0	0	163.000
MET	0	0	4	4

TAP	2	0	0
TAP	2	0	1
TAP	2	96	2
TAP	2	96	3
TAP	2	192	4
TAP	2	192	5
TAP	2	288	6
TAP	2	288	7
TAP	3	0	0
TAP	3	0	4
TAP	3	96	1
TAP	3	96	5
TAP	3	192	2
TAP	3	192	6
TAP	3	288	3
TAP	3	288	7
TAP	4	0	2
TAP	4	96	3
TAP	4	192	2
TAP	4	288	3
TAP	5	0	2
TAP	5	48	3
TAP	5	96	2
TAP	5	144	3
TAP	5	192	1
TAP	5	216	0
TAP	5	240	7
TAP	5	264	6
TAP	5	288	5
TAP	5	312	4
TAP	5	336	3
TAP	5	360	2
HLD	6	0	0	96
TAP	6	48	2
HLD	6	96	4	96
TAP	6	144	6
HLD	6	192	7	72
TAP	6	264	5
TAP	6	312	7
TAP	6	336	0
HLD	7	0	1	72
TAP	7	72	3
TAP	7	120	0
TAP	7	144	7
HLD	7	192	6	72
TAP	7	264	2
TAP	7	312	3
TAP	7	336	2
STR	8	0	7
SI_	8	0	7	96	48	4
STR	8	48	3
SI_	8	48	3	96	48	0
TAP	8	192	5
TAP	8	216	4
HLD	8	264	6	72
STR	8	336	0
SI_	8	336	0	96	24	4
STR	9	48	7
SI_	9	48	7	96	24	3
STR	9	120	6
SI_	9	120	6	96	24	2
STR	9	192	5
SI_	9	192	5	96	24	1
TAP	9	336	0
TAP	10	0	2
TAP	10	24	3
TAP	10	48	1
TAP	10	72	4
TAP	10	144	5
TAP	10	168	4
TAP	10	192	6
TAP	10	216	3
TAP	10	288	4
TAP	10	312	2
TAP	10	336	5
TAP	10	360	3
TAP	11	0	7
TAP	11	24	0
TAP	11	48	7
TAP	11	72	1
TAP	11	96	7
TAP	11	120	2
TAP	11	144	7
TAP	11	168	3
TAP	11	192	6
TAP	11	216	2
TAP	11	240	5
TAP	11	264	1
TAP	11	288	4
TAP	11	312	0
TAP	11	336	3
BRK	11	360	7
STR	12	48	3
SI_	12	48	3	96	24	0
STR	12	144	3
SI_	12	144	3	96	24	6
STR	12	240	3
SI_	12	240	3	96	24	7
TAP	13	0	6
TAP	13	24	7
TAP	13	48	5
TAP	13	72	0
TAP	13	96	4
TAP	13	120	1
TAP	13	144	3
TAP	13	168	2
TAP	13	192	4
TAP	13	216	1
TAP	13	240	5
TAP	13	264	0
BRK	13	288	6
TAP	14	0	0
TAP	14	48	1
TAP	14	96	2
TAP	14	144	3
TAP	14	192	0
TAP	14	240	2
TAP	14	264	3
TAP	14	312	1
TAP	14	336	0
TAP	15	0	4
TAP	15	48	5
TAP	15	96	6
TAP	15	144	7
TAP	15	192	4
TAP	15	240	6
TAP	15	264	7
TAP	15	312	5
TAP	15	336	4
TAP	16	0	1
TAP	16	48	0
TAP	16	96	7
TAP	16	144	6
TAP	16	192	1
TAP	16	240	6
TAP	16	264	7
TAP	16	312	1
TAP	16	336	0
TAP	17	0	5
TAP	17	48	4
TAP	17	96	3
TAP	17	144	2
TAP	17	192	5
TAP	17	240	2
TAP	17	264	3
TAP	17	312	5
TAP	17	336	4
TAP	18	0	0
TAP	18	0	6
TAP	18	48	7
TAP	18	96	0
TAP	18	144	1
TAP	18	192	2
TAP	18	240	5
TAP	18	264	4
TAP	18	312	2
TAP	18	336	3
TAP	19	0	1
TAP	19	0	7
TAP	19	48	0
TAP	19	96	7
TAP	19	144	6
TAP	19	192	5
TAP	19	240	2
TAP	19	264	3
TAP	19	312	5
TAP	19	336	4
TAP	20	0	3
TAP	20	0	7
TAP	20	48	2
TAP	20	48	6
TAP	20	96	1
TAP	20	96	5
TAP	20	144	0
TAP	20	144	4
TAP	20	288	3
TAP	20	288	7
HLD	21	0	0	144
HLD	21	96	2	144
TAP	21	192	4
STR	21	240	4
SI_	21	240	4	96	48	0
STR	22	0	6
SI_	22	0	6	96	96	3
STR	22	96	3
SI_	22	96	3	96	96	0
STR	22	192	0
SI_	22	192	0	96	96	5
STR	23	0	0
SI_	23	0	0	96	48	4
STR	23	96	7
SI_	23	96	7	96	48	3
STR	23	192	6
SI_	23	192	6	96	48	2
STR	24	0	5
SI_	24	0	5	96	96	2
STR	24	96	2
SI_	24	96	2	96	96	7
STR	24	192	7
SI_	24	192	7	96	96	4
TAP	25	0	3
TAP	25	96	5
TAP	25	144	0
STR	25	240	6
SCL	25	240	6	96	48	3
BRK	25	288	6
STR	26	48	0
SCL	26	48	0	96	48	5
BRK	26	96	0
STR	26	240	2
SCL	26	240	2	96	48	7
BRK	26	288	2
TAP	27	144	7
TAP	27	192	5
TAP	27	264	3
TAP	27	336	1
TAP	28	0	0
STR	28	0	7
SI_	28	0	7	96	48	3
STR	28	96	4
SI_	28	96	4	96	48	0
TAP	28	96	7
TAP	28	192	4
STR	28	336	6
SI_	28	336	6	96	72	3
STR	29	48	1
SI_	29	48	1	96	48	5
BRK	29	48	6
BRK	29	144	6
STR	30	0	0
SI_	30	0	0	96	48	4
BRK	30	96	0
STR	30	96	7
SI_	30	96	7	96	48	3
STR	30	192	1
SI_	30	192	1	96	48	5
BRK	30	192	7
BRK	30	288	1
TAP	30	288	6
STR	31	0	6
SI_	31	0	6	96	48	2
STR	31	96	0
SI_	31	96	0	96	48	4
BRK	31	96	6
BRK	31	192	0
STR	31	192	7
SI_	31	192	7	96	48	3
TAP	31	288	0
BRK	31	288	7
STR	32	0	2
SCL	32	0	2	96	96	7
STR	32	96	7
SCL	32	96	7	96	96	4
STR	32	192	4
SCL	32	192	4	96	48	1
STR	33	0	3
SI_	33	0	3	96	48	0
STR	33	0	7
SI_	33	0	7	96	48	4
STR	33	192	0
SCR	33	192	0	96	48	3
STR	33	192	4
SCR	33	192	4	96	48	7
STR	34	0	1
SI_	34	0	1	96	48	5
BRK	34	96	1
STR	34	96	6
SI_	34	96	6	96	48	2
STR	34	192	0
SI_	34	192	0	96	48	4
BRK	34	192	6
BRK	34	288	0
TAP	34	288	7
STR	35	0	3
SI_	35	0	3	96	48	7
STR	35	96	4
SI_	35	96	4	96	48	0
STR	35	288	1
SI_	35	288	1	96	48	5
STR	36	0	5
SI_	36	0	5	96	48	1
STR	36	96	1
SCL	36	96	1	96	48	6
TAP	37	0	0
TAP	37	0	4
TAP	37	96	1
TAP	37	96	5
TAP	37	144	2
TAP	37	144	6
TAP	37	240	3
TAP	37	240	7
BRK	37	336	0
BRK	37	336	4
STR	38	0	1
SCL	38	0	1	96	96	6
STR	38	96	6
SI_	38	96	6	96	96	2
STR	38	192	2
SCR	38	192	2	96	96	5
STR	39	0	0
SI_	39	0	0	96	48	3
STR	39	96	7
SI_	39	96	7	96	48	4
STR	39	192	5
SI_	39	192	5	96	48	2
TAP	39	336	6
TAP	40	144	1
TAP	40	144	5
TAP	40	336	0
TAP	40	336	4
STR	41	144	3
SCR	41	144	3	96	48	6
STR	41	144	7
SCR	41	144	7	96	48	2
TAP	41	336	3
TAP	41	336	7
BRK	42	0	1
BRK	42	0	5
STR	42	144	0
SCR	42	144	0	96	48	3
TAP	42	192	0
STR	42	240	0
SCL	42	240	0	96	48	5
TAP	43	96	1
TAP	43	96	6
TAP	43	192	3
TAP	43	192	7
TAP	43	264	0
TAP	43	264	4
TAP	43	336	2
TAP	43	336	5
TAP	44	0	3
TAP	44	0	7
HLD	44	144	0	432
STR	44	144	5
SCL	44	144	5	96	336	2
STR	46	0	2
SI_	46	0	2	96	192	7
STR	46	0	6
SI_	46	0	6	96	192	3
STR	47	0	3
SCR	47	0	3	96	192	6
STR	47	0	7
SCR	47	0	7	96	192	2
HLD	48	0	0	384
TAP	48	96	2
TAP	48	192	3
TAP	48	288	1
HLD	49	0	7	384
TAP	49	96	5
TAP	49	192	4
TAP	49	288	6
HLD	50	0	0	192
TAP	50	96	2
HLD	50	192	7	192
TAP	50	288	5
HLD	51	0	0	192
TAP	51	96	2
BRK	51	192	7
HLD	52	0	2	96
TAP	52	48	4
HLD	52	96	4	96
TAP	52	144	6
HLD	52	192	6	96
TAP	52	240	4
HLD	52	288	4	96
TAP	52	336	6
HLD	53	0	6	96
TAP	53	48	0
HLD	53	96	0	96
TAP	53	144	2
HLD	53	192	2	96
BRK	53	288	4
TAP	54	0	0
TAP	54	48	4
TAP	54	96	2
TAP	54	144	6
TAP	54	192	1
TAP	54	240	0
TAP	54	288	7
TAP	54	336	6
BRK	55	0	0
TAP	55	24	7
TAP	55	48	1
TAP	55	72	7
BRK	55	96	0
TAP	55	120	6
TAP	55	144	0
TAP	55	168	7
BRK	55	192	2
TAP	55	216	4
TAP	55	240	3
TAP	55	264	5
BRK	55	288	2
TAP	55	312	5
TAP	55	336	3
TAP	55	360	4
STR	56	0	0
SCL	56	0	0	96	192	5
STR	57	0	5
SCR	57	0	5	96	192	0
STR	58	0	2
SCL	58	0	2	96	96	7
TAP	58	48	2
STR	58	192	6
SCL	58	192	6	96	96	3
TAP	58	240	6
STR	59	0	0
SI_	59	0	0	96	48	4
STR	59	48	7
SI_	59	48	7	96	48	3
STR	59	192	2
SCL	59	192	2	96	48	7
HLD	59	240	2	96
TAP	60	0	1
TAP	60	0	3
TAP	60	72	2
TAP	60	144	5
TAP	60	144	7
TAP	60	216	6
TAP	60	288	0
STR	60	288	4
SI_	60	288	4	96	48	0
HLD	60	336	4	96
TAP	61	96	1
TAP	61	96	7
TAP	61	144	2
TAP	61	144	6
TAP	61	240	4
TAP	61	240	5
TAP	61	288	6
TAP	61	288	7
STR	61	336	0
SCL	61	336	0	96	96	5
BRK	61	336	1
TAP	62	240	2
TAP	62	288	0
TAP	62	288	1
TAP	62	336	7
TAP	63	0	5
TAP	63	0	6
TAP	63	96	3
TAP	63	96	7
TAP	63	144	0
TAP	63	144	4
TAP	63	240	1
TAP	63	240	5
STR	63	336	2
SCL	63	336	2	96	96	7
BRK	63	336	6
TAP	64	240	6
TAP	64	288	4
TAP	64	288	5
TAP	64	336	3
TAP	65	0	1
TAP	65	0	2
TAP	65	96	0
TAP	65	96	1
TAP	65	144	6
TAP	65	144	7
TAP	65	240	0
STR	65	240	1
SI_	65	240	1	96	48	4
BRK	65	336	7
STR	66	48	6
SI_	66	48	6	96	48	3
TAP	66	48	7
BRK	66	144	0
TAP	66	240	0
STR	66	240	1
SI_	66	240	1	96	48	4
BRK	66	336	5
STR	67	48	6
SI_	67	48	6	96	48	3
TAP	67	48	7
BRK	67	144	2
TAP	67	240	2
TAP	67	240	5
TAP	67	336	1
TAP	67	336	6
BRK	68	0	0
BRK	68	0	7
TAP	68	144	0
TAP	68	144	6
TAP	68	192	3
TAP	68	192	5
TAP	68	240	0
TAP	68	240	2
STR	68	336	4
SCR	68	336	4	96	96	7
STR	68	336	7
SCR	68	336	7	96	96	2
TAP	69	192	0
TAP	69	192	4
TAP	69	264	1
TAP	69	264	5
TAP	69	336	2
TAP	69	336	6
STR	70	0	3
SI_	70	0	3	96	480	0
STR	70	0	7
SI_	70	0	7	96	480	4
STR	72	0	0
SCR	72	0	0	96	480	3
STR	72	0	4
SCR	72	0	4	96	480	7
HLD	74	0	7	96
TAP	74	48	5
HLD	74	96	3	96
TAP	74	144	1
HLD	74	192	0	72
TAP	74	264	2
TAP	74	312	0
TAP	74	336	7
HLD	75	0	6	72
TAP	75	72	4
TAP	75	120	7
TAP	75	144	0
HLD	75	192	1	72
TAP	75	264	6
TAP	75	312	2
TAP	75	336	3
STR	76	0	0
SI_	76	0	0	96	48	3
STR	76	48	4
SI_	76	48	4	96	48	7
TAP	76	192	2
TAP	76	216	3
HLD	76	264	0	72
STR	76	336	7
SI_	76	336	7	96	24	3
STR	77	48	0
SI_	77	48	0	96	24	4
STR	77	120	1
SI_	77	120	1	96	24	5
STR	77	192	2
SI_	77	192	2	96	24	6
TAP	77	336	7
TAP	78	0	5
TAP	78	24	4
TAP	78	48	6
TAP	78	72	3
TAP	78	144	2
TAP	78	168	3
TAP	78	192	1
TAP	78	216	4
TAP	78	288	3
TAP	78	312	5
TAP	78	336	2
TAP	78	360	4
TAP	79	0	0
TAP	79	24	7
TAP	79	48	1
TAP	79	72	7
TAP	79	96	2
TAP	79	120	7
TAP	79	144	3
TAP	79	168	7
TAP	79	192	2
TAP	79	216	6
TAP	79	240	1
TAP	79	264	5
TAP	79	288	0
TAP	79	312	4
TAP	79	336	7
BRK	79	360	3
STR	80	48	4
SI_	80	48	4	96	24	7
STR	80	144	4
SI_	80	144	4	96	24	1
STR	80	240	4
SI_	80	240	4	96	24	0
TAP	81	0	1
TAP	81	24	0
TAP	81	48	2
TAP	81	72	7
TAP	81	96	3
TAP	81	120	6
TAP	81	144	4
TAP	81	168	5
TAP	81	192	3
TAP	81	216	6
TAP	81	240	2
TAP	81	264	7
BRK	81	288	1
STR	82	96	0
SI_	82	96	0	96	48	4
STR	82	96	7
SI_	82	96	7	96	48	3
TAP	82	144	2
TAP	82	144	5

T_REC_TAP	340
T_REC_BRK	36
T_REC_XTP	0
T_REC_HLD	29
T_REC_XHO	0
T_REC_STR	93
T_REC_BST	0
T_REC_XST	0
T_REC_TTP	0
T_REC_THO	0
T_REC_SLD	93
T_REC_ALL	591
T_NUM_TAP	433
T_NUM_BRK	36
T_NUM_HLD	29
T_NUM_SLD	93
T_NUM_ALL	591
T_JUDGE_TAP	469
T_JUDGE_HLD	85
T_JUDGE_SLD	93
T_JUDGE_ALL	647
TTM_EACHPAIRS	83
TTM_SCR_TAP	216500
TTM_SCR_BRK	93600
TTM_SCR_HLD	29000
TTM_SCR_SLD	139500
TTM_SCR_ALL	478600
TTM_SCR_S	460750
TTM_SCR_SS	475000
TTM_RAT_ACV	10075

