VERSION	0.00.00	1.03.00
FES_MODE	0
BPM_DEF	163.000	163.000	163.000	163.000
MET_DEF	4	4
RESOLUTION	384
CLK_DEF	384
COMPATIBLE_CODE	MA2

BPM	0	0	163.000
MET	0	0	4	4

STR	2	0	0
SI_	2	0	0	96	48	4
STR	2	192	6
SI_	2	192	6	96	48	2
STR	3	0	1
SI_	3	0	1	96	48	5
STR	3	192	7
SI_	3	192	7	96	48	3
STR	4	0	0
SCL	4	0	0	96	48	5
STR	4	192	7
SCR	4	192	7	96	48	2
STR	5	0	7
SI_	5	0	7	96	48	2
STR	5	96	3
SI_	5	96	3	96	48	6
BRK	5	192	1
HLD	6	0	2	96
TAP	6	96	3
TAP	6	192	5
TAP	6	264	4
TAP	6	336	3
HLD	7	0	6	96
TAP	7	96	7
TAP	7	192	1
TAP	7	264	0
TAP	7	336	7
HLD	8	0	1	96
TAP	8	96	2
TAP	8	192	3
TAP	8	264	4
TAP	8	336	5
HLD	9	0	6	96
TAP	9	96	1
TAP	9	144	0
TAP	9	240	5
TAP	9	288	4
STR	10	0	0
SI_	10	0	0	96	96	4
TAP	10	0	6
TAP	10	96	7
TAP	10	192	0
TAP	10	264	7
TAP	10	336	6
TAP	11	0	1
STR	11	0	7
SI_	11	0	7	96	96	3
TAP	11	96	0
TAP	11	192	7
TAP	11	264	0
TAP	11	336	1
STR	12	0	4
SI_	12	0	4	96	96	0
TAP	12	0	6
TAP	12	96	5
TAP	12	192	4
TAP	12	264	5
TAP	12	336	6
TAP	13	0	0
TAP	13	24	7
TAP	13	48	0
TAP	13	96	4
TAP	13	120	3
TAP	13	144	4
TAP	13	192	0
TAP	13	216	7
TAP	13	240	1
TAP	13	264	6
BRK	13	288	0
TAP	14	48	1
TAP	14	96	0
TAP	14	144	3
TAP	14	192	3
HLD	14	240	6	96
TAP	14	336	5
HLD	15	0	5	96
TAP	15	96	4
HLD	15	144	4	96
TAP	15	240	3
HLD	15	336	4	240
TAP	16	96	2
TAP	16	192	3
STR	16	288	3
SCL	16	288	3	96	192	0
STR	16	288	4
SCR	16	288	4	96	192	7
TAP	18	48	1
TAP	18	96	2
TAP	18	144	3
TAP	18	192	4
HLD	18	240	5	96
TAP	18	336	2
HLD	19	0	2	96
BRK	19	96	6
BRK	19	144	6
BRK	19	240	7
BRK	19	336	7
TAP	20	96	0
TAP	20	96	5
TAP	20	192	1
TAP	20	192	4
TAP	20	288	2
TAP	20	288	3
HLD	21	0	0	96
HLD	21	96	5	96
TAP	21	192	7
TAP	21	240	6
TAP	21	336	0
TAP	21	336	1
HLD	22	0	1	96
HLD	22	96	2	96
HLD	22	192	3	96
HLD	22	288	6	96
HLD	23	0	5	96
HLD	23	96	4	96
HLD	23	192	3	96
HLD	23	288	1	96
HLD	24	0	0	96
HLD	24	96	7	96
HLD	24	192	6	96
TAP	24	288	5
HLD	25	0	0	144
HLD	25	0	7	144
STR	25	240	0
SI_	25	240	0	96	48	4
TAP	25	288	0
STR	26	48	7
SI_	26	48	7	96	48	3
TAP	26	96	7
STR	26	240	2
SI_	26	240	2	96	48	6
TAP	26	288	2
TAP	27	144	2
TAP	27	144	6
TAP	27	192	2
TAP	27	192	6
TAP	27	264	1
TAP	27	264	5
TAP	27	336	0
TAP	27	336	4
TAP	28	0	3
TAP	28	0	7
STR	28	96	3
SCR	28	96	3	96	96	6
STR	28	96	7
SCR	28	96	7	96	96	2
BRK	28	336	3
BRK	28	336	7
BRK	29	48	1
BRK	29	48	5
BRK	29	144	0
BRK	29	144	7
HLD	30	0	0	72
HLD	30	72	1	72
HLD	30	144	2	72
HLD	30	216	3	72
TAP	30	288	1
TAP	30	336	0
HLD	31	0	7	144
TAP	31	72	6
TAP	31	144	6
HLD	31	192	0	144
TAP	31	264	1
TAP	31	336	1
HLD	32	0	2	72
HLD	32	72	3	72
HLD	32	144	4	72
HLD	32	216	5	72
TAP	32	288	6
TAP	32	336	7
TAP	33	0	0
TAP	33	96	1
STR	33	144	1
SI_	33	144	1	96	48	5
STR	33	240	7
SI_	33	240	7	96	48	3
TAP	34	0	0
TAP	34	72	2
TAP	34	144	4
TAP	34	216	6
TAP	34	288	7
TAP	34	336	6
HLD	35	0	5	240
TAP	35	96	6
TAP	35	144	7
TAP	35	240	0
STR	35	288	1
SI_	35	288	1	96	48	5
STR	36	0	7
SI_	36	0	7	96	48	3
STR	36	96	2
SI_	36	96	2	96	48	6
TAP	37	0	1
TAP	37	0	5
TAP	37	96	2
TAP	37	96	6
TAP	37	144	2
TAP	37	144	6
TAP	37	240	3
TAP	37	240	7
STR	37	336	0
SCL	37	336	0	96	144	5
STR	37	336	4
SCL	37	336	4	96	144	1
TAP	38	240	2
TAP	38	288	3
TAP	38	336	4
TAP	39	0	5
TAP	39	96	7
TAP	39	144	0
TAP	39	240	6
BRK	39	336	0
STR	39	336	1
SI_	39	336	1	96	48	4
STR	40	144	6
SI_	40	144	6	96	48	3
BRK	40	144	7
BRK	40	336	0
STR	40	336	1
SI_	40	336	1	96	48	4
STR	41	144	6
SI_	41	144	6	96	48	3
BRK	41	144	7
TAP	41	336	1
TAP	41	336	6
TAP	42	0	0
TAP	42	0	7
TAP	42	144	0
TAP	42	192	2
HLD	42	240	4	96
STR	42	336	6
SI_	42	336	6	96	96	2
TAP	43	192	7
TAP	43	264	5
TAP	43	336	3
HLD	44	0	1	144
STR	44	144	2
SI_	44	144	2	96	144	7
STR	45	336	2
SI_	45	336	2	96	336	7
STR	46	0	0
SI_	46	0	0	96	192	4
TAP	48	0	0
HLD	48	96	1	192
TAP	48	192	2
HLD	48	288	3	192
TAP	49	0	4
HLD	49	96	5	192
TAP	49	192	6
TAP	49	288	7
HLD	50	0	0	96
HLD	50	96	4	96
HLD	50	192	3	96
HLD	50	288	7	96
HLD	51	0	1	96
HLD	51	96	5	96
STR	51	192	2
SI_	51	192	2	96	96	6
TAP	52	0	1
HLD	52	96	3	96
HLD	52	192	4	96
TAP	52	288	6
HLD	53	0	5	96
TAP	53	96	4
HLD	53	192	3	96
TAP	53	288	2
TAP	54	0	0
TAP	54	0	1
TAP	54	96	6
TAP	54	96	7
TAP	54	192	4
TAP	54	192	5
TAP	54	288	2
TAP	54	288	3
TAP	55	0	3
TAP	55	0	4
TAP	55	96	5
TAP	55	96	6
BRK	55	192	0
BRK	55	192	7
STR	56	0	3
SI_	56	0	3	96	96	0
STR	56	0	7
SI_	56	0	7	96	96	4
STR	57	0	0
SCR	57	0	0	96	96	3
STR	57	0	4
SCR	57	0	4	96	96	7
TAP	58	0	0
TAP	58	0	4
TAP	58	48	1
TAP	58	48	5
TAP	58	192	2
TAP	58	192	6
TAP	58	240	3
TAP	58	240	7
TAP	59	0	2
TAP	59	0	6
TAP	59	96	1
TAP	59	96	5
TAP	59	192	0
TAP	59	192	4
STR	59	288	3
SI_	59	288	3	96	96	6
STR	59	288	7
SI_	59	288	7	96	96	2
HLD	60	288	1	96
TAP	60	336	0
HLD	61	0	7	144
TAP	61	96	2
HLD	61	144	3	192
TAP	61	240	4
TAP	61	288	5
STR	61	336	6
SI_	61	336	6	96	96	2
TAP	62	240	1
TAP	62	288	0
TAP	62	336	7
TAP	63	0	2
TAP	63	0	6
TAP	63	96	1
TAP	63	96	5
TAP	63	144	1
TAP	63	144	5
TAP	63	240	0
TAP	63	240	4
STR	63	336	3
SCR	63	336	3	96	96	6
STR	63	336	7
SCR	63	336	7	96	96	2
TAP	64	240	2
TAP	64	288	1
TAP	64	336	0
HLD	65	0	7	96
TAP	65	96	2
HLD	65	144	3	96
TAP	65	240	4
STR	65	336	1
SI_	65	336	1	96	48	4
STR	65	336	7
SI_	65	336	7	96	48	4
STR	66	144	3
SI_	66	144	3	96	48	0
STR	66	144	5
SI_	66	144	5	96	48	0
STR	66	336	0
SI_	66	336	0	96	48	3
STR	66	336	6
SI_	66	336	6	96	48	3
STR	67	144	2
SI_	67	144	2	96	48	7
STR	67	144	4
SI_	67	144	4	96	48	7
TAP	67	336	1
TAP	67	336	6
TAP	68	0	0
TAP	68	0	7
TAP	68	144	1
HLD	68	144	5	192
TAP	68	192	0
TAP	68	240	7
STR	68	336	6
SCR	68	336	6	96	96	1
TAP	69	192	0
TAP	69	192	1
TAP	69	264	6
TAP	69	264	7
TAP	69	336	4
TAP	69	336	5
STR	70	0	2
SCL	70	0	2	96	288	7
STR	70	0	3
SI_	70	0	3	96	288	7
STR	72	0	4
SI_	72	0	4	96	288	0
STR	72	0	5
SCR	72	0	5	96	288	0
HLD	74	0	0	96
HLD	74	96	2	96
TAP	74	192	6
TAP	74	264	7
TAP	74	336	0
HLD	75	0	1	96
HLD	75	96	6	96
TAP	75	192	5
TAP	75	264	4
TAP	75	336	3
HLD	76	0	2	96
HLD	76	96	7	96
TAP	76	192	1
TAP	76	264	2
TAP	76	336	3
HLD	77	0	1	96
TAP	77	96	6
TAP	77	144	7
TAP	77	240	2
TAP	77	288	3
TAP	78	0	1
STR	78	0	7
SI_	78	0	7	96	96	3
TAP	78	96	0
TAP	78	192	7
TAP	78	264	0
TAP	78	336	1
STR	79	0	0
SI_	79	0	0	96	96	4
TAP	79	0	6
TAP	79	96	7
TAP	79	192	0
TAP	79	264	7
TAP	79	336	1
TAP	79	336	6
HLD	80	48	5	72
HLD	80	120	4	72
HLD	80	192	3	72
HLD	80	264	2	72
TAP	80	336	1
TAP	81	0	2
TAP	81	24	3
TAP	81	48	2
TAP	81	96	5
TAP	81	120	4
TAP	81	144	5
TAP	81	192	3
TAP	81	216	4
TAP	81	240	2
TAP	81	264	5
TAP	81	288	1
TAP	81	312	6
TAP	81	336	0
TAP	81	360	7
TAP	82	96	0
TAP	82	96	7
TAP	82	144	1
TAP	82	144	6
BRK	82	192	0
BRK	82	192	7

T_REC_TAP	233
T_REC_BRK	20
T_REC_XTP	0
T_REC_HLD	68
T_REC_XHO	0
T_REC_STR	58
T_REC_BST	0
T_REC_XST	0
T_REC_TTP	0
T_REC_THO	0
T_REC_SLD	58
T_REC_ALL	437
T_NUM_TAP	291
T_NUM_BRK	20
T_NUM_HLD	68
T_NUM_SLD	58
T_NUM_ALL	437
T_JUDGE_TAP	311
T_JUDGE_HLD	158
T_JUDGE_SLD	58
T_JUDGE_ALL	527
TTM_EACHPAIRS	69
TTM_SCR_TAP	145500
TTM_SCR_BRK	52000
TTM_SCR_HLD	68000
TTM_SCR_SLD	87000
TTM_SCR_ALL	352500
TTM_SCR_S	340000
TTM_SCR_SS	350500
TTM_RAT_ACV	10057

