VERSION	0.00.00	1.03.00
FES_MODE	0
BPM_DEF	163.000	163.000	163.000	163.000
MET_DEF	4	4
RESOLUTION	384
CLK_DEF	384
COMPATIBLE_CODE	MA2

BPM	0	0	163.000
MET	0	0	4	4

TAP	2	0	6
TAP	2	96	7
TAP	2	192	0
TAP	2	288	1
TAP	3	0	5
TAP	3	96	4
TAP	3	192	3
TAP	3	288	2
TAP	4	0	0
TAP	4	96	2
TAP	4	192	4
TAP	4	288	6
TAP	5	0	0
TAP	5	96	7
BRK	5	192	1
BRK	5	192	6
STR	6	0	0
SI_	6	0	0	96	96	3
TAP	6	192	6
TAP	6	288	6
STR	7	0	7
SI_	7	0	7	96	96	4
TAP	7	192	1
TAP	7	288	1
TAP	8	0	5
TAP	8	96	4
TAP	8	192	3
TAP	8	288	2
TAP	9	0	1
TAP	9	96	0
TAP	9	192	6
TAP	9	192	7
TAP	10	0	0
TAP	10	96	7
TAP	10	192	0
TAP	10	288	7
TAP	11	0	1
TAP	11	96	0
TAP	11	192	1
TAP	11	288	0
TAP	12	0	6
TAP	12	96	7
TAP	12	192	6
TAP	12	288	7
TAP	13	0	6
TAP	13	0	7
TAP	13	96	4
TAP	13	96	5
TAP	13	192	2
TAP	13	192	3
BRK	13	288	0
BRK	13	288	1
HLD	14	0	1	96
TAP	14	96	2
HLD	14	192	6	96
TAP	14	288	5
HLD	15	0	2	96
TAP	15	96	3
HLD	15	192	5	96
TAP	15	288	4
STR	16	0	0
SI_	16	0	0	96	192	4
STR	17	0	7
SI_	17	0	7	96	192	3
TAP	18	0	2
TAP	18	96	4
TAP	18	96	5
TAP	18	192	5
TAP	18	288	2
TAP	18	288	3
TAP	19	0	1
TAP	19	96	6
TAP	19	96	7
TAP	19	192	6
TAP	19	288	0
TAP	19	288	1
TAP	20	0	2
TAP	20	96	4
HLD	20	192	6	96
TAP	21	0	4
TAP	21	96	3
HLD	21	192	0	96
HLD	21	192	7	96
STR	22	0	0
SI_	22	0	0	96	96	5
STR	23	0	7
SI_	23	0	7	96	96	2
STR	24	0	4
SI_	24	0	4	96	96	1
STR	25	0	3
SI_	25	0	3	96	96	6
TAP	25	336	0
TAP	25	336	1
TAP	26	144	0
TAP	26	144	7
TAP	26	336	6
TAP	26	336	7
TAP	27	192	6
TAP	27	288	7
HLD	28	0	0	192
HLD	28	0	7	192
TAP	28	336	0
TAP	28	336	7
TAP	29	48	0
TAP	29	48	7
BRK	29	144	0
BRK	29	144	7
HLD	30	0	0	288
TAP	30	0	7
TAP	30	96	6
TAP	30	192	5
TAP	30	288	4
TAP	31	0	0
HLD	31	0	4	288
TAP	31	96	1
TAP	31	192	2
TAP	31	288	3
STR	32	0	0
SI_	32	0	0	96	48	4
STR	32	192	6
SI_	32	192	6	96	48	2
HLD	33	0	1	288
TAP	33	96	0
TAP	33	192	7
TAP	33	288	6
STR	34	0	7
SI_	34	0	7	96	48	3
STR	34	192	1
SI_	34	192	1	96	48	5
HLD	35	0	6	288
TAP	35	96	7
TAP	35	192	0
TAP	35	288	1
HLD	36	0	0	192
HLD	36	0	7	192
TAP	37	0	0
TAP	37	0	4
TAP	37	144	2
TAP	37	144	6
TAP	37	240	2
TAP	37	240	6
BRK	37	336	3
BRK	37	336	7
HLD	39	0	2	96
TAP	39	96	3
HLD	39	192	5	96
TAP	39	288	4
TAP	40	0	1
TAP	40	96	6
TAP	40	96	7
TAP	40	192	5
TAP	40	288	2
TAP	40	288	3
TAP	41	0	2
TAP	41	0	3
TAP	41	96	4
TAP	41	96	5
TAP	41	192	2
TAP	41	192	3
TAP	41	288	4
TAP	41	288	5
HLD	42	0	1	192
TAP	42	192	3
HLD	43	0	4	192
TAP	43	192	6
TAP	43	288	7
HLD	44	0	0	576
HLD	44	144	7	432
STR	46	0	0
SCR	46	0	0	96	288	3
STR	46	0	4
SCR	46	0	4	96	288	7
TAP	48	0	0
TAP	48	192	2
TAP	49	0	4
TAP	49	192	6
TAP	50	0	7
TAP	50	192	5
TAP	51	0	3
TAP	51	192	0
TAP	51	192	1
TAP	52	0	0
TAP	52	96	6
TAP	52	192	4
TAP	52	288	2
TAP	53	0	1
TAP	53	96	3
TAP	53	192	5
TAP	53	288	7
TAP	54	0	0
TAP	54	96	4
TAP	54	192	3
TAP	54	288	7
TAP	55	0	0
TAP	55	96	7
BRK	55	192	0
STR	56	0	1
SI_	56	0	1	96	192	5
STR	57	0	6
SI_	57	0	6	96	192	2
TAP	58	0	6
TAP	58	192	1
TAP	59	0	6
TAP	59	0	7
TAP	59	96	0
TAP	59	96	1
TAP	59	192	3
TAP	59	192	4
BRK	59	288	1
BRK	59	288	6
TAP	60	0	5
TAP	60	0	7
TAP	60	96	6
TAP	60	192	0
TAP	60	192	2
TAP	60	288	1
TAP	61	0	2
TAP	61	0	4
TAP	61	96	3
TAP	61	192	3
TAP	61	192	5
TAP	61	288	4
HLD	62	0	2	192
HLD	62	0	5	192
TAP	63	0	3
TAP	63	0	7
TAP	63	144	1
TAP	63	144	5
TAP	63	240	1
TAP	63	240	5
HLD	63	336	0	240
HLD	63	336	4	240
HLD	65	0	4	96
TAP	65	96	5
HLD	65	192	1	96
TAP	65	288	0
STR	66	0	7
SI_	66	0	7	96	48	3
STR	66	192	1
SI_	66	192	1	96	48	5
STR	67	0	6
SI_	67	0	6	96	48	2
STR	67	192	0
SI_	67	192	0	96	48	4
HLD	68	0	6	192
TAP	68	192	4
HLD	69	0	1	192
TAP	69	192	0
TAP	69	288	7
HLD	70	0	6	576
HLD	70	144	2	432
STR	72	0	2
SCL	72	0	2	96	288	7
STR	72	0	6
SCL	72	0	6	96	288	3
TAP	74	0	6
TAP	74	96	0
TAP	74	192	2
TAP	74	288	4
TAP	75	0	5
TAP	75	96	4
TAP	75	192	3
TAP	75	288	2
TAP	76	0	4
TAP	76	96	5
TAP	76	192	6
TAP	76	288	7
TAP	77	0	0
TAP	77	96	1
TAP	77	192	2
TAP	77	288	3
STR	78	0	7
SI_	78	0	7	96	48	4
TAP	78	192	3
TAP	78	288	2
STR	79	0	1
SI_	79	0	1	96	48	5
TAP	79	192	6
TAP	79	288	7
TAP	80	0	5
TAP	80	96	4
TAP	80	192	3
TAP	80	288	2
TAP	81	0	0
TAP	81	0	1
TAP	81	96	2
TAP	81	96	3
TAP	81	192	4
TAP	81	192	5
TAP	81	288	6
TAP	81	288	7
TAP	82	96	0
TAP	82	96	7
BRK	82	192	0
BRK	82	192	7

T_REC_TAP	203
T_REC_BRK	13
T_REC_XTP	0
T_REC_HLD	31
T_REC_XHO	0
T_REC_STR	24
T_REC_BST	0
T_REC_XST	0
T_REC_TTP	0
T_REC_THO	0
T_REC_SLD	24
T_REC_ALL	295
T_NUM_TAP	227
T_NUM_BRK	13
T_NUM_HLD	31
T_NUM_SLD	24
T_NUM_ALL	295
T_JUDGE_TAP	240
T_JUDGE_HLD	138
T_JUDGE_SLD	24
T_JUDGE_ALL	402
TTM_EACHPAIRS	53
TTM_SCR_TAP	113500
TTM_SCR_BRK	33800
TTM_SCR_HLD	31000
TTM_SCR_SLD	36000
TTM_SCR_ALL	214300
TTM_SCR_S	206650
TTM_SCR_SS	213000
TTM_RAT_ACV	10061

