VERSION	0.00.00	1.03.00
FES_MODE	0
BPM_DEF	163.000	163.000	163.000	163.000
MET_DEF	4	4
RESOLUTION	384
CLK_DEF	384
COMPATIBLE_CODE	MA2

BPM	0	0	163.000
MET	0	0	4	4

TAP	6	0	0
TAP	6	192	0
TAP	7	0	7
TAP	7	192	7
TAP	8	0	1
TAP	8	192	1
TAP	9	0	6
TAP	9	192	6
HLD	10	0	5	288
HLD	11	0	4	288
HLD	12	0	3	288
HLD	13	0	2	288
TAP	14	0	1
TAP	14	192	1
TAP	15	0	2
TAP	15	192	2
STR	16	0	3
SI_	16	0	3	96	288	0
TAP	18	0	6
TAP	18	192	6
TAP	19	0	5
TAP	19	192	5
STR	20	0	4
SI_	20	0	4	96	288	7
HLD	22	0	1	192
HLD	23	0	6	192
HLD	24	0	0	192
HLD	25	0	7	192
TAP	26	0	1
TAP	26	96	1
TAP	26	192	1
TAP	27	0	6
TAP	27	96	6
TAP	27	192	6
TAP	28	0	0
TAP	28	96	0
TAP	28	192	7
TAP	28	288	7
TAP	29	0	0
TAP	29	0	7
BRK	29	192	0
BRK	29	192	7
TAP	30	0	0
TAP	30	192	0
TAP	31	0	1
TAP	31	96	1
TAP	31	192	1
TAP	32	0	7
TAP	32	192	7
TAP	33	0	6
TAP	33	96	6
TAP	33	192	6
TAP	34	0	2
TAP	34	192	2
TAP	35	0	3
TAP	35	96	3
TAP	35	192	3
TAP	36	0	5
TAP	36	192	5
TAP	37	0	4
TAP	37	96	4
TAP	37	192	4
HLD	38	0	0	192
HLD	39	0	7	192
HLD	40	0	6	192
HLD	41	0	5	192
TAP	42	0	6
TAP	42	192	7
TAP	43	0	0
TAP	43	192	1
STR	44	0	2
SI_	44	0	2	96	288	7
STR	46	0	5
SI_	46	0	5	96	288	0
TAP	48	0	1
TAP	48	192	1
TAP	49	0	2
TAP	49	192	2
TAP	50	0	3
TAP	50	192	3
TAP	51	0	4
TAP	51	192	4
TAP	52	0	5
TAP	52	96	5
TAP	52	192	5
TAP	53	0	6
TAP	53	96	6
TAP	53	192	6
TAP	54	0	7
TAP	54	192	0
TAP	55	0	1
TAP	55	96	1
BRK	55	192	1
STR	56	0	1
SI_	56	0	1	96	288	4
STR	58	0	5
SI_	58	0	5	96	288	0
TAP	60	0	1
TAP	60	192	1
TAP	61	0	6
TAP	61	192	6
TAP	62	0	0
TAP	62	192	0
TAP	63	0	7
TAP	63	192	7
TAP	64	0	6
TAP	64	96	6
TAP	64	192	6
TAP	65	0	5
TAP	65	96	5
TAP	65	192	5
TAP	66	0	4
TAP	66	192	4
TAP	66	192	5
TAP	67	0	3
TAP	67	192	2
TAP	67	192	3
HLD	68	0	1	192
HLD	69	0	6	192
STR	70	0	3
SI_	70	0	3	96	288	0
STR	72	0	4
SI_	72	0	4	96	288	7
TAP	74	0	0
TAP	74	192	0
TAP	75	0	6
TAP	75	192	6
TAP	76	0	2
TAP	76	192	2
TAP	77	0	4
TAP	77	192	4
HLD	78	0	3	192
HLD	79	0	5	192
HLD	80	0	1	192
HLD	81	0	7	192
TAP	82	96	0
TAP	82	96	7
BRK	82	192	0
BRK	82	192	7

T_REC_TAP	100
T_REC_BRK	5
T_REC_XTP	0
T_REC_HLD	18
T_REC_XHO	0
T_REC_STR	8
T_REC_BST	0
T_REC_XST	0
T_REC_TTP	0
T_REC_THO	0
T_REC_SLD	8
T_REC_ALL	139
T_NUM_TAP	108
T_NUM_BRK	5
T_NUM_HLD	18
T_NUM_SLD	8
T_NUM_ALL	139
T_JUDGE_TAP	113
T_JUDGE_HLD	80
T_JUDGE_SLD	8
T_JUDGE_ALL	201
TTM_EACHPAIRS	6
TTM_SCR_TAP	54000
TTM_SCR_BRK	13000
TTM_SCR_HLD	18000
TTM_SCR_SLD	12000
TTM_SCR_ALL	97000
TTM_SCR_S	93650
TTM_SCR_SS	96500
TTM_RAT_ACV	10051

