VERSION	0.00.00	1.03.00
FES_MODE	0
BPM_DEF	167.000	167.000	167.000	167.000
MET_DEF	4	4
RESOLUTION	384
CLK_DEF	384
COMPATIBLE_CODE	MA2

BPM	0	0	167.000
MET	0	0	4	4

HLD	1	0	4	144
TAP	1	192	4
TAP	2	0	4
TAP	2	96	4
STR	2	192	4
SI_	2	192	4	96	48	1
HLD	3	0	3	144
TAP	3	192	3
TAP	4	0	3
TAP	4	96	3
STR	4	192	3
SI_	4	192	3	96	48	6
STR	4	288	5
SI_	4	288	5	96	48	0
TAP	5	0	7
TAP	5	96	7
TAP	5	192	7
TAP	5	240	0
TAP	5	288	7
TAP	5	336	5
TAP	6	0	6
TAP	6	48	0
TAP	6	96	1
TAP	6	144	7
TAP	6	192	6
TAP	6	240	1
TAP	6	288	2
TAP	6	336	1
TAP	7	0	0
TAP	7	96	0
TAP	7	192	0
TAP	7	240	7
TAP	7	288	1
BRK	7	336	0
BRK	7	336	5
TAP	9	0	2
TAP	9	24	3
TAP	9	48	2
TAP	9	72	3
TAP	9	96	2
TAP	9	192	5
TAP	9	240	0
TAP	9	288	6
TAP	9	336	3
TAP	10	0	5
TAP	10	24	4
TAP	10	48	5
TAP	10	72	4
TAP	10	96	5
TAP	10	192	2
TAP	10	240	7
TAP	10	288	1
TAP	10	336	4
TAP	11	0	2
TAP	11	24	3
TAP	11	48	2
TAP	11	72	3
TAP	11	96	2
TAP	11	192	5
TAP	11	240	0
TAP	11	288	6
TAP	11	336	3
TAP	12	0	6
TAP	12	24	5
TAP	12	48	4
TAP	12	72	1
TAP	12	96	2
TAP	12	120	3
TAP	12	144	6
TAP	12	168	5
TAP	12	192	4
TAP	12	216	1
TAP	12	240	2
TAP	12	264	3
TAP	12	288	6
TAP	12	336	1
TAP	13	0	5
TAP	13	24	4
TAP	13	48	5
TAP	13	72	4
TAP	13	96	5
TAP	13	192	2
TAP	13	240	7
TAP	13	288	1
TAP	13	336	4
TAP	14	0	2
TAP	14	24	3
TAP	14	48	2
TAP	14	72	3
TAP	14	96	2
TAP	14	192	5
TAP	14	240	0
TAP	14	288	6
TAP	14	336	3
TAP	15	0	5
TAP	15	24	4
TAP	15	48	5
TAP	15	72	4
TAP	15	96	5
TAP	15	192	2
TAP	15	240	7
TAP	15	288	1
TAP	15	336	4
TAP	16	0	3
TAP	16	0	7
TAP	16	72	0
TAP	16	72	5
TAP	16	144	2
TAP	16	144	6
TAP	16	216	1
TAP	16	216	4
TAP	16	288	0
TAP	16	288	2
TAP	16	336	5
TAP	16	336	7
TAP	17	0	1
TAP	17	96	1
STR	17	192	1
SI_	17	192	1	96	48	5
TAP	17	216	1
STR	17	240	5
SI_	17	240	5	96	48	0
TAP	17	264	5
TAP	18	0	6
TAP	18	96	6
STR	18	192	6
SI_	18	192	6	96	48	2
TAP	18	216	6
STR	18	240	2
SI_	18	240	2	96	48	7
TAP	18	264	2
TAP	19	0	1
TAP	19	96	1
TAP	19	192	5
TAP	19	240	7
TAP	19	288	3
STR	19	336	1
SCL	19	336	1	96	48	6
STR	20	48	3
SCR	20	48	3	96	48	6
STR	20	144	2
SI_	20	144	2	96	48	6
TAP	20	240	4
STR	20	288	4
SI_	20	288	4	96	48	0
BRK	21	96	3
BRK	21	96	7
STR	21	192	1
SI_	21	192	1	96	48	4
TAP	21	216	1
STR	21	240	4
SI_	21	240	4	96	48	0
TAP	21	264	4
TAP	22	48	2
TAP	22	48	6
TAP	22	96	0
TAP	22	96	4
STR	22	192	6
SI_	22	192	6	96	48	3
TAP	22	216	6
STR	22	240	3
SI_	22	240	3	96	48	7
TAP	22	264	3
TAP	23	96	4
TAP	23	96	7
TAP	23	144	2
TAP	23	192	0
TAP	23	192	3
TAP	23	240	5
BRK	23	336	1
BRK	23	336	6
TAP	24	48	3
TAP	24	48	7
TAP	24	96	0
TAP	24	96	4
TAP	24	144	3
TAP	24	144	7
TAP	24	192	1
TAP	24	192	5
TAP	24	240	2
TAP	24	240	6
TAP	24	288	1
TAP	24	288	5
TAP	25	96	7
TAP	25	144	5
HLD	25	192	1	144
TAP	25	240	3
TAP	25	336	3
TAP	26	0	0
TAP	26	48	2
HLD	26	96	6	144
TAP	26	144	4
TAP	26	240	4
TAP	26	288	6
TAP	26	336	1
STR	27	0	6
SI_	27	0	6	96	48	2
STR	27	48	2
SI_	27	48	2	96	48	6
STR	27	192	1
SI_	27	192	1	96	48	5
STR	27	240	5
SI_	27	240	5	96	48	1
TAP	28	0	7
TAP	28	48	3
TAP	28	96	7
TAP	28	144	1
TAP	28	144	5
TAP	28	240	3
TAP	28	240	7
TAP	28	336	1
TAP	28	336	5
TAP	29	96	0
TAP	29	144	2
HLD	29	192	6	144
TAP	29	240	4
TAP	29	336	4
TAP	30	0	7
TAP	30	48	5
HLD	30	96	1	144
TAP	30	144	3
TAP	30	240	3
TAP	30	288	1
TAP	30	336	6
HLD	31	0	1	96
STR	31	0	2
SI_	31	0	2	96	48	7
STR	31	192	5
SI_	31	192	5	96	48	0
HLD	31	192	6	96
BRK	31	336	3
TAP	32	48	0
TAP	32	48	5
TAP	32	96	3
TAP	32	96	7
TAP	32	144	1
TAP	32	144	4
BRK	32	192	2
BRK	32	192	6
BRK	32	240	0
BRK	32	240	4
STR	33	0	6
SI_	33	0	6	96	48	2
STR	33	0	7
SI_	33	0	7	96	48	3
BRK	33	96	6
BRK	33	96	7
TAP	33	240	1
TAP	33	288	5
TAP	33	336	0
STR	34	48	0
SI_	34	48	0	96	48	5
STR	34	96	5
SI_	34	96	5	96	48	1
STR	34	144	1
SI_	34	144	1	96	48	4
TAP	35	48	1
TAP	35	96	0
TAP	35	144	6
TAP	35	192	7
TAP	35	240	1
TAP	35	288	0
TAP	35	336	6
STR	36	0	0
SI_	36	0	0	96	48	5
STR	36	0	4
SI_	36	0	4	96	48	1
STR	36	192	3
SI_	36	192	3	96	48	6
STR	36	192	7
SI_	36	192	7	96	48	2
STR	37	0	0
SI_	37	0	0	96	48	4
STR	37	0	1
SI_	37	0	1	96	48	5
BRK	37	96	0
BRK	37	96	1
TAP	37	240	5
TAP	37	288	1
TAP	37	336	6
STR	38	48	6
SI_	38	48	6	96	48	1
STR	38	96	1
SI_	38	96	1	96	48	5
STR	38	144	5
SI_	38	144	5	96	48	2
TAP	39	48	6
TAP	39	96	5
TAP	39	144	1
TAP	39	192	2
TAP	39	240	6
TAP	39	288	5
TAP	39	336	1
STR	40	0	6
SI_	40	0	6	96	48	1
STR	40	0	7
SI_	40	0	7	96	48	4
STR	40	192	2
SI_	40	192	2	96	48	5
STR	40	192	3
SI_	40	192	3	96	48	0
STR	41	0	6
SI_	41	0	6	96	48	2
STR	41	0	7
SI_	41	0	7	96	48	3
BRK	41	96	6
BRK	41	96	7
TAP	41	240	6
TAP	41	288	0
TAP	41	336	2
STR	42	48	2
SCL	42	48	2	96	72	7
STR	42	96	0
SCL	42	96	0	96	72	5
STR	42	144	6
SCL	42	144	6	96	72	3
TAP	43	48	0
TAP	43	96	1
TAP	43	144	7
TAP	43	192	6
TAP	43	240	1
TAP	43	288	0
TAP	43	336	7
STR	44	0	4
SI_	44	0	4	96	48	1
STR	44	0	6
SI_	44	0	6	96	48	3
STR	44	192	0
SI_	44	192	0	96	48	5
STR	44	192	2
SI_	44	192	2	96	48	7
STR	45	0	0
SCL	45	0	0	96	48	5
STR	45	0	1
SCR	45	0	1	96	48	4
BRK	45	96	0
BRK	45	96	1
TAP	45	240	3
TAP	45	288	0
TAP	45	336	5
STR	46	48	5
SI_	46	48	5	96	48	0
STR	46	96	0
SCR	46	96	0	96	48	3
STR	46	144	3
SI_	46	144	3	96	48	6
TAP	47	48	5
TAP	47	96	7
TAP	47	144	2
TAP	47	192	0
TAP	47	240	5
TAP	47	288	7
TAP	47	336	2
STR	48	0	3
SCL	48	0	3	96	48	0
STR	48	0	4
SCR	48	0	4	96	48	7
STR	48	192	1
SI_	48	192	1	96	48	5
STR	48	192	6
SI_	48	192	6	96	48	2
STR	49	0	0
SI_	49	0	0	96	48	4
STR	49	0	7
SI_	49	0	7	96	48	3
BRK	49	96	0
BRK	49	96	7
TAP	50	0	2
TAP	50	24	4
TAP	50	48	3
TAP	50	72	4
TAP	50	96	2
TAP	50	144	5
TAP	50	192	4
TAP	50	240	5
TAP	50	288	2
TAP	50	312	3
TAP	50	336	2
TAP	51	0	5
TAP	51	24	3
TAP	51	48	4
TAP	51	72	3
TAP	51	96	5
TAP	51	144	2
TAP	51	192	3
TAP	51	240	2
TAP	51	288	5
TAP	51	312	4
TAP	51	336	5
TAP	52	0	2
TAP	52	24	4
TAP	52	48	3
TAP	52	72	4
TAP	52	96	2
TAP	52	144	5
TAP	52	192	4
TAP	52	240	5
TAP	52	288	2
TAP	52	312	3
TAP	52	336	2
TAP	53	0	6
TAP	53	24	5
TAP	53	48	4
TAP	53	72	1
TAP	53	96	2
TAP	53	120	3
TAP	53	144	7
TAP	53	168	6
TAP	53	192	5
TAP	53	216	0
TAP	53	240	1
TAP	53	264	2
TAP	53	288	6
TAP	53	336	1
TAP	54	0	5
TAP	54	24	3
TAP	54	48	4
TAP	54	72	3
TAP	54	96	5
TAP	54	144	2
TAP	54	192	3
TAP	54	240	2
TAP	54	288	5
TAP	54	312	4
TAP	54	336	5
TAP	55	0	2
TAP	55	24	4
TAP	55	48	3
TAP	55	72	4
TAP	55	96	2
TAP	55	144	5
TAP	55	192	4
TAP	55	240	5
TAP	55	288	2
TAP	55	312	3
TAP	55	336	2
TAP	56	0	5
TAP	56	24	3
TAP	56	48	4
TAP	56	72	3
TAP	56	96	5
TAP	56	144	2
TAP	56	192	3
TAP	56	240	2
TAP	56	288	5
TAP	56	312	4
TAP	56	336	5
TAP	57	0	0
TAP	57	0	1
TAP	57	72	6
TAP	57	72	7
TAP	57	144	0
TAP	57	144	2
TAP	57	216	5
TAP	57	216	7
TAP	57	288	1
TAP	57	288	4
TAP	57	336	3
TAP	57	336	6
HLD	58	0	1	192
TAP	58	144	5
HLD	58	192	5	192
TAP	58	336	3
HLD	59	0	3	192
TAP	59	144	7
HLD	59	192	7	192
TAP	59	336	1
STR	60	0	1
SI_	60	0	1	96	48	5
STR	60	48	5
SI_	60	48	5	96	48	1
STR	60	192	6
SI_	60	192	6	96	48	2
STR	60	240	2
SI_	60	240	2	96	48	6
TAP	61	0	1
TAP	61	48	3
TAP	61	96	5
STR	61	144	7
SI_	61	144	7	96	48	3
BRK	61	288	4
HLD	62	0	3	48
HLD	62	48	4	48
HLD	62	96	3	48
HLD	62	144	4	48
HLD	62	192	3	48
HLD	62	240	4	48
HLD	62	288	3	48
HLD	62	336	4	48
HLD	63	0	2	48
HLD	63	48	4	48
HLD	63	96	3	48
HLD	63	144	5	48
HLD	63	192	4	48
HLD	63	240	3	48
TAP	63	288	2
HLD	64	0	5	96
HLD	64	0	6	96
HLD	64	192	1	96
HLD	64	192	2	96
BRK	64	336	3
BRK	64	336	7
TAP	65	48	0
TAP	65	48	4
STR	65	96	3
SCR	65	96	3	96	96	6
STR	65	96	7
SCR	65	96	7	96	96	2
TAP	65	144	0
TAP	65	144	4
TAP	65	192	3
TAP	65	192	7
STR	66	0	3
SI_	66	0	3	96	48	6
STR	66	0	7
SI_	66	0	7	96	48	2
BRK	66	96	3
BRK	66	96	7
TAP	66	192	4
TAP	66	240	1
TAP	66	288	5
TAP	66	336	0
STR	67	48	0
SI_	67	48	0	96	48	5
STR	67	96	5
SI_	67	96	5	96	48	1
STR	67	144	1
SI_	67	144	1	96	48	4
STR	67	192	4
SI_	67	192	4	96	48	0
HLD	68	48	1	96
TAP	68	96	0
HLD	68	144	6	96
TAP	68	192	7
HLD	68	240	1	96
TAP	68	288	0
TAP	68	336	6
STR	69	0	0
SI_	69	0	0	96	48	5
STR	69	0	4
SI_	69	0	4	96	48	1
TAP	69	96	0
TAP	69	96	4
STR	69	192	3
SI_	69	192	3	96	48	6
STR	69	192	7
SI_	69	192	7	96	48	2
TAP	69	288	3
TAP	69	288	7
STR	70	0	1
SI_	70	0	1	96	48	4
STR	70	0	5
SI_	70	0	5	96	48	0
BRK	70	96	1
BRK	70	96	5
TAP	70	192	2
TAP	70	240	5
TAP	70	288	1
TAP	70	336	6
STR	71	48	6
SI_	71	48	6	96	48	1
STR	71	96	1
SI_	71	96	1	96	48	5
STR	71	144	5
SI_	71	144	5	96	48	2
STR	71	192	2
SI_	71	192	2	96	48	6
HLD	72	48	6	96
TAP	72	96	5
HLD	72	144	1	96
TAP	72	192	2
HLD	72	240	6	96
TAP	72	288	5
TAP	72	336	1
STR	73	0	6
SI_	73	0	6	96	48	1
STR	73	0	7
SI_	73	0	7	96	48	4
TAP	73	96	6
TAP	73	96	7
STR	73	192	2
SI_	73	192	2	96	48	5
STR	73	192	3
SI_	73	192	3	96	48	0
TAP	73	288	2
TAP	73	288	3
STR	74	0	2
SI_	74	0	2	96	48	7
STR	74	0	6
SI_	74	0	6	96	48	3
BRK	74	96	2
BRK	74	96	6
TAP	74	192	4
TAP	74	240	6
TAP	74	288	0
TAP	74	336	2
STR	75	48	2
SCL	75	48	2	96	72	7
STR	75	96	0
SCL	75	96	0	96	72	5
STR	75	144	6
SCL	75	144	6	96	72	3
STR	75	192	4
SCL	75	192	4	96	72	1
HLD	76	48	0	96
TAP	76	96	1
HLD	76	144	7	96
TAP	76	192	6
HLD	76	240	0	96
TAP	76	288	1
TAP	76	336	7
STR	77	0	4
SI_	77	0	4	96	48	1
STR	77	0	6
SI_	77	0	6	96	48	3
TAP	77	96	4
TAP	77	96	6
STR	77	192	0
SI_	77	192	0	96	48	5
STR	77	192	2
SI_	77	192	2	96	48	7
TAP	77	288	0
TAP	77	288	2
STR	78	0	0
SCL	78	0	0	96	48	5
STR	78	0	4
SCL	78	0	4	96	48	1
BRK	78	96	0
BRK	78	96	4
TAP	78	192	6
TAP	78	240	3
TAP	78	288	0
TAP	78	336	5
STR	79	48	5
SI_	79	48	5	96	48	0
STR	79	96	0
SCR	79	96	0	96	48	3
STR	79	144	3
SI_	79	144	3	96	48	6
STR	79	192	6
SI_	79	192	6	96	48	1
HLD	80	48	5	96
TAP	80	96	7
HLD	80	144	2	96
TAP	80	192	0
HLD	80	240	5	96
TAP	80	288	7
TAP	80	336	2
STR	81	0	3
SCL	81	0	3	96	48	0
STR	81	0	4
SCR	81	0	4	96	48	7
TAP	81	96	3
TAP	81	96	4
STR	81	192	1
SI_	81	192	1	96	48	5
STR	81	192	6
SI_	81	192	6	96	48	2
TAP	81	288	1
TAP	81	288	6
STR	82	0	1
SI_	82	0	1	96	48	4
STR	82	0	6
SI_	82	0	6	96	48	3
BRK	82	96	1
BRK	82	96	6
TAP	83	0	1
TAP	83	24	3
TAP	83	48	2
TAP	83	72	4
TAP	83	96	1
TAP	83	144	5
TAP	83	192	4
TAP	83	216	6
TAP	83	240	3
TAP	83	264	5
TAP	83	288	2
TAP	83	312	4
TAP	83	336	1
TAP	84	0	6
TAP	84	24	4
TAP	84	48	5
TAP	84	72	3
TAP	84	96	6
TAP	84	144	2
TAP	84	192	3
TAP	84	216	1
TAP	84	240	4
TAP	84	264	2
TAP	84	288	5
TAP	84	312	3
TAP	84	336	6
TAP	85	0	1
TAP	85	24	3
TAP	85	48	2
TAP	85	72	4
TAP	85	96	1
TAP	85	144	5
TAP	85	192	4
TAP	85	216	6
TAP	85	240	3
TAP	85	264	5
TAP	85	288	2
TAP	85	312	4
TAP	85	336	1
TAP	86	0	6
TAP	86	24	7
TAP	86	48	0
TAP	86	72	1
TAP	86	96	0
TAP	86	120	7
TAP	86	144	6
TAP	86	168	7
TAP	86	192	0
TAP	86	216	1
TAP	86	240	0
TAP	86	264	7
TAP	86	288	6
TAP	86	336	1
TAP	87	0	6
TAP	87	24	0
TAP	87	48	4
TAP	87	72	2
TAP	87	96	6
TAP	87	144	2
TAP	87	192	3
TAP	87	216	1
TAP	87	240	7
TAP	87	264	4
TAP	87	288	6
TAP	87	312	0
TAP	87	336	3
TAP	88	0	1
TAP	88	24	7
TAP	88	48	3
TAP	88	72	5
TAP	88	96	1
TAP	88	144	5
TAP	88	192	4
TAP	88	216	6
TAP	88	240	0
TAP	88	264	3
TAP	88	288	1
TAP	88	312	7
TAP	88	336	4
TAP	89	0	6
TAP	89	24	0
TAP	89	48	4
TAP	89	72	2
TAP	89	96	6
TAP	89	144	2
TAP	89	192	3
TAP	89	216	1
TAP	89	240	7
TAP	89	264	4
TAP	89	288	6
TAP	89	312	0
TAP	89	336	3
TAP	90	0	0
TAP	90	0	2
TAP	90	72	0
TAP	90	72	6
TAP	90	144	2
TAP	90	144	4
TAP	90	216	4
TAP	90	216	6
TAP	90	288	0
TAP	90	288	4
TAP	90	336	2
TAP	90	336	6
TAP	91	0	0
TAP	91	0	4

T_REC_TAP	480
T_REC_BRK	34
T_REC_XTP	0
T_REC_HLD	42
T_REC_XHO	0
T_REC_STR	108
T_REC_BST	0
T_REC_XST	0
T_REC_TTP	0
T_REC_THO	0
T_REC_SLD	108
T_REC_ALL	772
T_NUM_TAP	588
T_NUM_BRK	34
T_NUM_HLD	42
T_NUM_SLD	108
T_NUM_ALL	772
T_JUDGE_TAP	622
T_JUDGE_HLD	84
T_JUDGE_SLD	108
T_JUDGE_ALL	814
TTM_EACHPAIRS	93
TTM_SCR_TAP	294000
TTM_SCR_BRK	88400
TTM_SCR_HLD	42000
TTM_SCR_SLD	162000
TTM_SCR_ALL	586400
TTM_SCR_S	565550
TTM_SCR_SS	583000
TTM_RAT_ACV	10058

