VERSION	0.00.00	1.03.00
FES_MODE	0
BPM_DEF	167.000	167.000	167.000	167.000
MET_DEF	4	4
RESOLUTION	384
CLK_DEF	384
COMPATIBLE_CODE	MA2

BPM	0	0	167.000
MET	0	0	4	4

HLD	1	0	1	144
TAP	1	96	7
TAP	1	144	6
HLD	1	288	5	144
TAP	2	0	3
TAP	2	48	2
STR	2	192	0
SI_	2	192	0	96	48	4
STR	2	240	6
SI_	2	240	6	96	48	2
HLD	3	0	1	96
TAP	3	96	3
TAP	3	144	1
HLD	3	288	7	96
TAP	4	0	5
TAP	4	48	7
TAP	4	192	2
TAP	4	192	4
TAP	4	288	0
TAP	4	288	6
TAP	5	0	1
HLD	5	96	7	96
TAP	5	192	5
TAP	5	288	3
TAP	6	0	6
HLD	6	96	0	96
TAP	6	192	2
TAP	6	288	4
TAP	7	0	1
TAP	7	96	3
HLD	7	192	4	288
STR	7	192	5
SCR	7	192	5	96	192	0
TAP	7	288	5
TAP	9	0	7
TAP	9	48	7
TAP	9	96	1
TAP	9	144	0
TAP	9	192	7
TAP	9	264	6
TAP	9	312	5
TAP	10	0	0
TAP	10	48	0
TAP	10	96	6
TAP	10	144	7
TAP	10	192	0
TAP	10	264	1
TAP	10	312	2
TAP	11	0	2
TAP	11	48	3
TAP	11	96	2
TAP	11	120	3
TAP	11	168	3
TAP	11	240	5
TAP	11	288	6
TAP	11	336	7
TAP	12	0	0
TAP	12	72	1
TAP	12	144	2
TAP	12	144	3
TAP	12	216	5
TAP	12	288	6
TAP	12	288	7
TAP	13	0	1
TAP	13	48	1
TAP	13	96	7
TAP	13	144	0
TAP	13	192	2
TAP	13	192	3
TAP	13	264	5
TAP	13	312	4
TAP	13	312	5
TAP	14	0	6
TAP	14	48	6
TAP	14	96	0
TAP	14	144	7
TAP	14	192	4
TAP	14	192	5
TAP	14	264	2
TAP	14	312	2
TAP	14	312	3
TAP	15	0	5
TAP	15	48	4
TAP	15	96	5
TAP	15	120	4
TAP	15	168	4
TAP	15	240	2
TAP	15	288	1
TAP	15	336	0
TAP	16	0	7
TAP	16	72	6
TAP	16	144	4
TAP	16	144	5
TAP	16	216	2
BRK	16	288	0
BRK	16	288	1
TAP	17	0	2
TAP	17	96	4
TAP	17	96	5
TAP	17	192	2
TAP	17	288	2
TAP	18	0	5
TAP	18	96	2
TAP	18	96	3
TAP	18	192	5
TAP	18	288	5
TAP	19	0	7
TAP	19	96	0
TAP	19	192	1
TAP	19	288	2
TAP	19	336	3
TAP	20	48	5
TAP	20	96	4
TAP	20	192	6
TAP	20	240	7
TAP	20	288	0
TAP	21	96	0
TAP	21	192	1
TAP	21	288	2
TAP	22	0	7
TAP	22	96	6
TAP	22	192	5
HLD	22	288	2	96
TAP	23	0	1
TAP	23	96	6
TAP	23	192	2
TAP	23	192	5
TAP	23	288	3
TAP	23	336	4
TAP	24	48	2
TAP	24	96	2
HLD	24	144	2	144
TAP	24	192	3
TAP	24	240	4
BRK	24	288	5
HLD	25	96	1	144
TAP	25	192	0
HLD	25	240	6	144
TAP	25	336	7
TAP	26	0	2
TAP	26	96	0
TAP	26	144	0
TAP	26	240	7
TAP	26	288	7
TAP	27	0	0
TAP	27	0	1
TAP	27	48	2
TAP	27	48	7
TAP	27	192	6
TAP	27	192	7
TAP	27	240	0
TAP	27	240	5
TAP	28	0	1
TAP	28	48	1
TAP	28	144	3
STR	28	240	5
SCR	28	240	5	96	48	0
TAP	28	288	5
HLD	29	96	1	144
TAP	29	192	7
HLD	29	240	6	144
TAP	29	336	0
TAP	30	0	2
TAP	30	96	7
TAP	30	144	7
TAP	30	240	0
TAP	30	288	0
TAP	31	0	5
TAP	31	0	7
TAP	31	192	0
TAP	31	192	2
HLD	31	336	1	96
TAP	32	48	0
TAP	32	96	2
TAP	32	144	7
TAP	32	192	3
BRK	32	240	4
BRK	32	240	6
BRK	33	0	0
BRK	33	0	7
STR	33	96	3
SI_	33	96	3	96	48	0
STR	33	96	4
SI_	33	96	4	96	48	7
HLD	33	336	1	96
TAP	34	48	0
HLD	34	96	0	96
TAP	34	144	7
HLD	34	192	7	72
TAP	34	264	6
TAP	35	48	2
TAP	35	96	3
TAP	35	144	5
TAP	35	192	4
TAP	35	240	0
TAP	35	288	7
TAP	35	336	1
STR	36	0	0
SI_	36	0	0	96	48	5
STR	36	0	1
SI_	36	0	1	96	48	5
STR	36	192	6
SI_	36	192	6	96	48	2
STR	36	192	7
SI_	36	192	7	96	48	2
BRK	37	0	6
BRK	37	0	7
STR	37	96	0
SI_	37	96	0	96	48	3
STR	37	96	5
SI_	37	96	5	96	48	2
HLD	37	336	5	144
TAP	38	48	2
TAP	38	96	2
TAP	38	192	2
TAP	38	192	5
TAP	38	264	0
TAP	38	264	7
TAP	39	48	3
TAP	39	96	5
TAP	39	144	7
TAP	39	192	0
TAP	39	240	6
TAP	39	288	4
TAP	39	336	2
STR	40	0	0
SI_	40	0	0	96	48	4
STR	40	96	7
SI_	40	96	7	96	48	3
STR	40	192	1
SI_	40	192	1	96	48	5
BRK	41	0	3
BRK	41	0	5
STR	41	96	1
SI_	41	96	1	96	48	5
STR	41	96	7
SI_	41	96	7	96	48	3
HLD	41	336	6	96
TAP	42	48	7
HLD	42	96	7	96
TAP	42	144	0
HLD	42	192	0	72
TAP	42	264	1
TAP	43	48	5
TAP	43	96	4
TAP	43	144	2
TAP	43	192	3
TAP	43	240	7
TAP	43	288	0
TAP	43	336	6
STR	44	0	6
SI_	44	0	6	96	48	2
STR	44	0	7
SI_	44	0	7	96	48	2
STR	44	192	0
SI_	44	192	0	96	48	5
STR	44	192	1
SI_	44	192	1	96	48	5
BRK	45	0	3
BRK	45	0	4
STR	45	96	0
SCR	45	96	0	96	48	3
STR	45	96	7
SCL	45	96	7	96	48	4
TAP	45	336	2
TAP	45	336	5
TAP	46	48	0
TAP	46	48	7
TAP	46	96	1
TAP	46	96	6
STR	46	192	3
SI_	46	192	3	96	48	0
STR	46	192	4
SI_	46	192	4	96	48	7
TAP	47	48	7
TAP	47	96	6
TAP	47	144	5
TAP	47	192	4
TAP	47	240	3
TAP	47	288	2
TAP	47	336	1
TAP	48	0	0
TAP	48	0	4
TAP	48	96	1
TAP	48	96	5
TAP	48	192	2
TAP	48	192	6
TAP	48	288	3
TAP	48	288	7
STR	49	0	1
SI_	49	0	1	96	48	5
STR	49	0	6
SI_	49	0	6	96	48	2
TAP	50	0	0
HLD	50	0	1	96
TAP	50	96	4
HLD	50	192	6	96
TAP	50	192	7
TAP	50	288	3
TAP	51	0	0
TAP	51	0	1
TAP	51	96	6
TAP	51	96	7
TAP	51	192	0
HLD	51	192	1	96
TAP	51	288	4
STR	52	0	0
SI_	52	0	0	96	72	4
TAP	52	48	0
STR	52	192	7
SI_	52	192	7	96	72	3
TAP	52	240	7
TAP	53	0	0
TAP	53	0	1
TAP	53	96	2
TAP	53	96	3
TAP	53	192	4
TAP	53	192	5
TAP	53	288	6
TAP	53	288	7
HLD	54	0	6	96
TAP	54	0	7
TAP	54	96	3
TAP	54	192	0
HLD	54	192	1	96
TAP	54	288	4
TAP	55	0	6
TAP	55	0	7
TAP	55	96	0
TAP	55	96	1
HLD	55	192	6	96
TAP	55	192	7
TAP	55	288	3
STR	56	0	6
SI_	56	0	6	96	72	1
TAP	56	48	7
STR	56	192	2
SI_	56	192	2	96	72	5
TAP	56	240	3
TAP	57	0	0
TAP	57	72	1
TAP	57	144	7
TAP	57	216	6
BRK	57	288	3
BRK	57	288	4
HLD	58	0	0	384
TAP	58	192	2
HLD	59	0	2	384
TAP	59	192	4
HLD	60	0	4	384
TAP	60	192	6
HLD	61	0	6	192
TAP	61	192	0
TAP	62	0	7
TAP	62	96	7
TAP	62	192	5
TAP	62	288	5
TAP	63	0	3
TAP	63	96	3
TAP	63	192	1
TAP	63	288	1
TAP	64	0	0
HLD	64	0	2	96
HLD	64	192	4	96
TAP	64	192	6
TAP	64	336	0
TAP	64	336	7
TAP	65	48	0
TAP	65	96	1
TAP	65	96	7
TAP	65	144	4
TAP	65	192	3
TAP	65	192	5
BRK	65	240	2
BRK	65	240	6
BRK	66	0	0
BRK	66	0	1
STR	66	96	2
SI_	66	96	2	96	48	7
STR	66	96	3
SI_	66	96	3	96	48	6
TAP	66	336	5
TAP	67	48	5
TAP	67	96	4
TAP	67	96	6
TAP	67	144	5
TAP	67	192	4
TAP	67	192	6
TAP	67	264	2
TAP	67	264	3
TAP	68	48	2
TAP	68	96	3
TAP	68	144	2
TAP	68	192	1
TAP	68	240	0
TAP	68	288	7
TAP	68	336	6
HLD	69	0	4	96
STR	69	0	6
SCR	69	0	6	96	48	1
STR	69	192	2
SCL	69	192	2	96	48	7
HLD	69	192	3	96
BRK	70	0	2
BRK	70	0	5
STR	70	96	0
SI_	70	96	0	96	48	4
STR	70	96	7
SI_	70	96	7	96	48	3
TAP	70	336	0
TAP	70	336	4
TAP	71	48	1
TAP	71	48	5
TAP	71	96	1
TAP	71	96	5
TAP	71	192	2
TAP	71	192	6
TAP	71	264	3
TAP	71	264	7
TAP	72	48	0
TAP	72	96	4
TAP	72	144	1
TAP	72	192	5
TAP	72	240	2
TAP	72	288	6
TAP	72	336	3
STR	73	0	7
SI_	73	0	7	96	48	3
STR	73	96	0
SI_	73	96	0	96	48	4
STR	73	192	6
SI_	73	192	6	96	48	2
BRK	74	0	6
BRK	74	0	7
STR	74	96	4
SI_	74	96	4	96	48	1
STR	74	96	5
SI_	74	96	5	96	48	0
TAP	74	336	2
TAP	75	48	2
TAP	75	96	1
TAP	75	96	3
TAP	75	144	2
TAP	75	192	1
TAP	75	192	3
TAP	75	264	4
TAP	75	264	5
TAP	76	48	5
TAP	76	96	4
TAP	76	144	5
TAP	76	192	6
TAP	76	240	7
TAP	76	288	0
TAP	76	336	1
STR	77	0	1
SCL	77	0	1	96	48	6
HLD	77	0	3	96
HLD	77	192	4	96
STR	77	192	5
SCR	77	192	5	96	48	0
BRK	78	0	1
BRK	78	0	6
STR	78	96	3
SI_	78	96	3	96	48	7
STR	78	96	4
SI_	78	96	4	96	48	0
TAP	78	336	3
TAP	78	336	7
TAP	79	48	2
TAP	79	48	6
TAP	79	96	2
TAP	79	96	6
STR	79	192	1
SCL	79	192	1	96	48	6
STR	79	192	5
SCL	79	192	5	96	48	2
TAP	80	48	7
TAP	80	96	3
TAP	80	144	6
TAP	80	192	2
TAP	80	240	5
TAP	80	288	1
TAP	80	336	4
STR	81	0	1
SCL	81	0	1	96	96	6
STR	81	96	6
SCL	81	96	6	96	96	3
STR	81	192	3
SI_	81	192	3	96	48	7
STR	82	0	1
SI_	82	0	1	96	48	5
STR	82	0	6
SI_	82	0	6	96	48	2
TAP	83	0	0
HLD	83	0	1	96
TAP	83	96	5
HLD	83	192	6	96
TAP	83	192	7
TAP	83	288	2
TAP	84	0	0
TAP	84	0	1
TAP	84	96	6
TAP	84	96	7
TAP	84	192	0
HLD	84	192	1	96
TAP	84	288	5
STR	85	0	0
SI_	85	0	0	96	72	3
STR	85	192	7
SI_	85	192	7	96	72	4
TAP	86	0	0
TAP	86	0	1
TAP	86	96	0
TAP	86	96	1
TAP	86	192	6
TAP	86	192	7
TAP	86	288	6
TAP	86	288	7
HLD	87	0	6	96
TAP	87	0	7
TAP	87	96	2
TAP	87	192	0
HLD	87	192	1	96
TAP	87	288	5
TAP	88	0	6
TAP	88	0	7
TAP	88	96	0
TAP	88	96	1
HLD	88	192	6	96
TAP	88	192	7
TAP	88	288	2
STR	89	0	6
SI_	89	0	6	96	72	1
STR	89	192	2
SI_	89	192	2	96	72	5
TAP	90	0	0
TAP	90	72	0
TAP	90	144	7
TAP	90	216	7
BRK	90	288	3
BRK	90	288	4
BRK	91	0	1
BRK	91	0	6

T_REC_TAP	357
T_REC_BRK	29
T_REC_XTP	0
T_REC_HLD	43
T_REC_XHO	0
T_REC_STR	57
T_REC_BST	0
T_REC_XST	0
T_REC_TTP	0
T_REC_THO	0
T_REC_SLD	57
T_REC_ALL	543
T_NUM_TAP	414
T_NUM_BRK	29
T_NUM_HLD	43
T_NUM_SLD	57
T_NUM_ALL	543
T_JUDGE_TAP	443
T_JUDGE_HLD	118
T_JUDGE_SLD	57
T_JUDGE_ALL	618
TTM_EACHPAIRS	109
TTM_SCR_TAP	207000
TTM_SCR_BRK	75400
TTM_SCR_HLD	43000
TTM_SCR_SLD	85500
TTM_SCR_ALL	410900
TTM_SCR_S	395800
TTM_SCR_SS	408000
TTM_RAT_ACV	10071

