VERSION	0.00.00	1.03.00
FES_MODE	0
BPM_DEF	167.000	167.000	167.000	167.000
MET_DEF	4	4
RESOLUTION	384
CLK_DEF	384
COMPATIBLE_CODE	MA2

BPM	0	0	167.000
MET	0	0	4	4

TAP	5	0	7
TAP	5	192	5
TAP	6	0	0
TAP	6	192	2
TAP	7	0	7
STR	7	192	0
SCR	7	192	0	96	120	3
HLD	9	0	4	96
TAP	9	192	6
TAP	9	288	4
HLD	10	0	3	96
TAP	10	192	1
TAP	10	288	2
HLD	11	0	0	96
TAP	11	192	2
TAP	11	288	3
HLD	12	0	5	96
HLD	12	192	2	96
HLD	13	0	3	96
TAP	13	192	1
TAP	13	288	2
HLD	14	0	4	96
TAP	14	192	6
TAP	14	288	5
HLD	15	0	7	96
TAP	15	192	5
TAP	15	288	4
STR	16	0	3
SI_	16	0	3	96	120	7
TAP	17	96	6
TAP	17	288	1
TAP	18	96	5
TAP	18	288	2
TAP	19	96	4
TAP	19	288	3
TAP	20	96	3
TAP	20	192	2
TAP	20	288	1
TAP	21	96	1
TAP	21	288	6
TAP	22	96	2
TAP	22	288	5
TAP	23	96	3
TAP	23	288	2
TAP	24	96	4
TAP	24	192	5
TAP	24	288	6
TAP	25	96	7
TAP	25	288	5
TAP	26	96	6
TAP	26	288	4
TAP	27	0	4
TAP	27	0	5
TAP	27	192	2
TAP	27	192	3
TAP	28	0	2
TAP	28	96	1
TAP	28	192	0
TAP	29	96	0
TAP	29	288	2
TAP	30	96	1
TAP	30	288	3
HLD	31	0	2	192
HLD	31	0	3	192
STR	31	336	4
SCR	31	336	4	96	168	7
TAP	33	0	0
BRK	33	96	1
TAP	34	0	3
TAP	34	96	4
TAP	34	192	5
TAP	34	288	6
TAP	35	96	4
TAP	35	288	2
STR	36	0	1
SI_	36	0	1	96	120	5
TAP	37	0	7
BRK	37	96	6
TAP	38	0	4
TAP	38	96	3
TAP	38	192	2
TAP	38	288	1
TAP	39	96	3
TAP	39	288	5
STR	40	0	6
SI_	40	0	6	96	120	2
TAP	41	0	0
BRK	41	96	1
TAP	42	0	3
TAP	42	96	2
TAP	42	192	4
TAP	42	288	5
TAP	43	96	6
TAP	43	288	1
HLD	44	0	0	96
HLD	44	192	6	96
TAP	45	0	7
BRK	45	96	6
TAP	46	0	4
TAP	46	96	5
TAP	46	192	3
TAP	46	288	2
TAP	47	96	1
TAP	47	288	6
HLD	48	0	7	96
HLD	48	192	1	96
TAP	49	0	0
TAP	49	0	7
STR	49	96	0
SI_	49	96	0	96	120	3
HLD	50	0	4	96
TAP	50	192	6
TAP	50	288	4
HLD	51	0	3	96
TAP	51	192	1
TAP	51	288	2
HLD	52	0	0	96
TAP	52	192	2
TAP	52	288	3
HLD	53	0	5	96
HLD	53	192	2	96
HLD	54	0	3	96
TAP	54	192	1
TAP	54	288	2
HLD	55	0	4	96
TAP	55	192	6
TAP	55	288	5
HLD	56	0	7	96
TAP	56	192	5
TAP	56	288	4
STR	57	0	3
SCL	57	0	3	96	120	0
TAP	58	0	5
TAP	58	192	3
TAP	59	0	1
TAP	59	192	7
TAP	60	0	5
TAP	60	192	3
HLD	61	0	3	288
HLD	61	0	5	288
TAP	62	96	1
TAP	62	288	3
TAP	63	96	5
TAP	63	288	7
TAP	64	0	0
TAP	64	0	1
TAP	64	192	0
TAP	64	192	1
STR	64	336	0
SI_	64	336	0	96	168	3
HLD	66	0	6	96
BRK	66	96	7
TAP	67	0	5
TAP	67	96	4
TAP	67	192	6
TAP	67	288	7
TAP	68	96	1
TAP	68	288	2
TAP	69	0	3
TAP	69	192	2
TAP	69	192	3
HLD	70	0	1	96
BRK	70	96	0
TAP	71	0	2
TAP	71	96	3
TAP	71	192	1
TAP	71	288	0
TAP	72	96	6
TAP	72	288	5
STR	73	0	6
SCR	73	0	6	96	120	1
HLD	74	0	6	96
BRK	74	96	7
TAP	75	0	5
TAP	75	96	4
TAP	75	192	3
TAP	75	288	2
TAP	76	96	0
TAP	76	288	2
STR	77	0	1
SCL	77	0	1	96	120	6
HLD	78	0	1	96
BRK	78	96	0
TAP	79	0	2
TAP	79	96	3
TAP	79	192	4
TAP	79	288	5
TAP	80	96	7
TAP	80	288	5
TAP	81	0	6
TAP	81	96	5
TAP	81	192	4
TAP	81	288	3
TAP	82	0	3
STR	82	96	3
SI_	82	96	3	96	120	7
HLD	83	0	6	96
TAP	83	192	5
TAP	83	288	4
HLD	84	0	1	96
TAP	84	192	2
TAP	84	288	3
HLD	85	0	5	96
TAP	85	192	6
TAP	85	288	7
HLD	86	0	1	96
HLD	86	192	2	96
HLD	87	0	1	96
TAP	87	192	2
TAP	87	288	3
HLD	88	0	6	96
TAP	88	192	5
TAP	88	288	4
HLD	89	0	1	96
TAP	89	192	0
TAP	89	288	7
STR	90	0	7
SCL	90	0	7	96	120	4
BRK	91	0	0

T_REC_TAP	150
T_REC_BRK	9
T_REC_XTP	0
T_REC_HLD	36
T_REC_XHO	0
T_REC_STR	12
T_REC_BST	0
T_REC_XST	0
T_REC_TTP	0
T_REC_THO	0
T_REC_SLD	12
T_REC_ALL	219
T_NUM_TAP	162
T_NUM_BRK	9
T_NUM_HLD	36
T_NUM_SLD	12
T_NUM_ALL	219
T_JUDGE_TAP	171
T_JUDGE_HLD	84
T_JUDGE_SLD	12
T_JUDGE_ALL	267
TTM_EACHPAIRS	8
TTM_SCR_TAP	81000
TTM_SCR_BRK	23400
TTM_SCR_HLD	36000
TTM_SCR_SLD	18000
TTM_SCR_ALL	158400
TTM_SCR_S	152800
TTM_SCR_SS	157500
TTM_RAT_ACV	10057

