VERSION	0.00.00	1.03.00
FES_MODE	0
BPM_DEF	167.000	167.000	167.000	167.000
MET_DEF	4	4
RESOLUTION	384
CLK_DEF	384
COMPATIBLE_CODE	MA2

BPM	0	0	167.000
MET	0	0	4	4

TAP	5	0	3
TAP	6	0	4
TAP	7	0	5
TAP	8	0	6
TAP	8	0	7
TAP	9	0	7
TAP	9	96	0
TAP	9	288	0
TAP	10	96	1
TAP	10	288	1
TAP	11	96	0
TAP	11	288	0
STR	12	0	7
SI_	12	0	7	96	96	3
TAP	13	0	0
TAP	13	96	7
TAP	13	288	7
TAP	14	96	6
TAP	14	288	6
TAP	15	96	7
TAP	15	288	7
STR	16	0	0
SI_	16	0	0	96	96	4
TAP	17	0	5
TAP	17	192	5
TAP	18	0	6
TAP	18	192	6
TAP	19	0	7
TAP	19	192	7
TAP	20	0	0
TAP	20	96	0
TAP	20	192	0
TAP	21	0	2
TAP	21	192	2
TAP	22	0	1
TAP	22	192	1
TAP	23	0	0
TAP	23	192	0
TAP	24	0	7
TAP	24	96	7
TAP	24	192	7
TAP	25	96	6
TAP	25	288	6
TAP	26	96	5
TAP	26	288	5
TAP	27	0	4
TAP	27	0	5
TAP	27	192	4
TAP	27	192	5
TAP	28	0	2
TAP	28	0	3
TAP	28	192	2
TAP	28	192	3
TAP	29	96	2
TAP	29	288	2
TAP	30	96	1
TAP	30	288	1
HLD	31	0	0	192
TAP	32	0	7
TAP	32	96	7
TAP	32	192	7
TAP	33	0	0
BRK	33	96	0
TAP	34	0	1
TAP	34	96	1
TAP	34	192	1
TAP	35	0	2
TAP	35	192	2
TAP	36	0	0
TAP	36	0	1
TAP	36	192	0
TAP	36	192	1
TAP	37	0	7
BRK	37	96	7
TAP	38	0	6
TAP	38	96	6
TAP	38	192	6
TAP	39	0	5
TAP	39	192	5
TAP	40	0	6
TAP	40	0	7
TAP	40	192	6
TAP	40	192	7
TAP	41	0	0
BRK	41	96	0
TAP	42	0	1
TAP	42	96	1
TAP	42	192	1
TAP	43	0	2
TAP	43	192	2
TAP	44	0	0
TAP	44	0	1
TAP	44	192	0
TAP	44	192	1
TAP	45	0	7
BRK	45	96	7
TAP	46	0	6
TAP	46	96	6
TAP	46	192	6
TAP	47	0	5
TAP	47	192	5
TAP	48	0	6
TAP	48	96	6
TAP	48	192	7
TAP	48	288	7
BRK	49	0	0
BRK	49	96	0
TAP	50	0	7
TAP	50	192	7
TAP	51	0	6
TAP	51	192	6
TAP	52	0	5
TAP	52	192	5
TAP	53	0	4
TAP	53	96	4
TAP	53	192	4
TAP	54	0	0
TAP	54	192	0
TAP	55	0	1
TAP	55	192	1
TAP	56	0	2
TAP	56	192	2
TAP	57	0	3
TAP	57	96	3
TAP	57	192	3
TAP	58	0	4
TAP	58	192	5
TAP	59	0	4
TAP	59	192	5
TAP	60	0	3
TAP	60	192	2
TAP	61	0	3
TAP	61	192	2
HLD	62	0	3	192
HLD	63	0	5	192
STR	64	0	1
SI_	64	0	1	96	96	4
TAP	65	0	7
TAP	65	96	7
TAP	65	192	7
TAP	66	0	0
BRK	66	96	0
STR	67	0	1
SI_	67	0	1	96	96	5
TAP	68	0	6
TAP	68	96	6
TAP	68	192	6
TAP	69	0	6
TAP	69	0	7
TAP	69	192	6
TAP	69	192	7
TAP	70	0	7
BRK	70	96	7
STR	71	0	6
SI_	71	0	6	96	96	2
TAP	72	0	1
TAP	72	96	1
TAP	72	192	1
TAP	73	0	0
TAP	73	0	1
TAP	73	192	0
TAP	73	192	1
TAP	74	0	0
BRK	74	96	0
STR	75	0	1
SI_	75	0	1	96	96	5
TAP	76	0	6
TAP	76	96	6
TAP	76	192	6
TAP	77	0	6
TAP	77	0	7
TAP	77	192	6
TAP	77	192	7
TAP	78	0	7
BRK	78	96	7
STR	79	0	6
SI_	79	0	6	96	96	2
TAP	80	0	1
TAP	80	96	1
TAP	80	192	0
TAP	80	288	0
TAP	81	0	7
TAP	81	96	7
TAP	81	192	6
TAP	81	288	6
BRK	82	0	0
BRK	82	96	0
TAP	83	0	1
TAP	83	192	1
TAP	84	0	2
TAP	84	192	2
TAP	85	0	3
TAP	85	192	3
TAP	86	0	4
TAP	86	96	4
TAP	86	192	3
TAP	86	288	3
TAP	87	0	4
TAP	87	192	4
TAP	88	0	5
TAP	88	192	5
TAP	89	0	6
TAP	89	192	6
TAP	90	0	7
TAP	90	96	7
TAP	90	192	0
TAP	90	288	0
TAP	91	0	1
TAP	91	0	6

T_REC_TAP	180
T_REC_BRK	12
T_REC_XTP	0
T_REC_HLD	3
T_REC_XHO	0
T_REC_STR	7
T_REC_BST	0
T_REC_XST	0
T_REC_TTP	0
T_REC_THO	0
T_REC_SLD	7
T_REC_ALL	209
T_NUM_TAP	187
T_NUM_BRK	12
T_NUM_HLD	3
T_NUM_SLD	7
T_NUM_ALL	209
T_JUDGE_TAP	199
T_JUDGE_HLD	12
T_JUDGE_SLD	7
T_JUDGE_ALL	218
TTM_EACHPAIRS	18
TTM_SCR_TAP	93500
TTM_SCR_BRK	31200
TTM_SCR_HLD	3000
TTM_SCR_SLD	10500
TTM_SCR_ALL	138200
TTM_SCR_S	132900
TTM_SCR_SS	137000
TTM_RAT_ACV	10087

