VERSION	0.00.00	1.03.00
FES_MODE	0
BPM_DEF	182.000	182.000	182.000	182.000
MET_DEF	4	4
RESOLUTION	384
CLK_DEF	384
COMPATIBLE_CODE	MA2

BPM	0	0	182.000
MET	0	0	4	4

TAP	2	0	2
TAP	2	0	3
TAP	2	48	1
TAP	2	48	4
TAP	2	192	4
TAP	2	192	5
STR	2	240	3
SCL	2	240	3	96	192	4
TAP	2	240	6
HLD	2	336	7	240
TAP	3	240	6
TAP	3	288	5
TAP	3	336	4
TAP	4	0	2
TAP	4	0	3
TAP	4	48	1
TAP	4	48	4
TAP	4	192	4
TAP	4	192	5
STR	4	240	3
SI_	4	240	3	96	48	7
STR	4	240	6
SI_	4	240	6	96	48	3
TAP	4	336	3
TAP	4	336	6
TAP	5	48	5
TAP	5	96	6
TAP	5	144	7
TAP	5	240	0
TAP	5	240	1
TAP	5	288	2
TAP	5	336	3
TAP	6	0	4
TAP	6	0	5
TAP	6	48	3
TAP	6	48	6
TAP	6	192	2
TAP	6	192	3
TAP	6	240	1
STR	6	240	4
SCR	6	240	4	96	192	3
HLD	6	336	0	240
TAP	7	240	1
TAP	7	288	2
TAP	7	336	3
TAP	8	0	4
TAP	8	0	5
TAP	8	48	3
TAP	8	48	6
TAP	8	192	2
TAP	8	192	3
STR	8	240	1
SCR	8	240	1	96	192	7
TAP	8	240	4
HLD	8	336	5	240
TAP	9	336	0
TAP	9	336	1
TAP	10	0	0
TAP	10	0	1
STR	10	48	2
SI_	10	48	2	96	48	7
TAP	10	48	7
TAP	10	144	6
STR	10	192	6
SI_	10	192	6	96	48	3
BRK	10	288	2
STR	11	0	0
SI_	11	0	0	96	48	5
TAP	11	48	7
TAP	11	96	0
STR	11	144	6
SI_	11	144	6	96	48	3
TAP	11	192	7
TAP	11	240	6
STR	11	288	1
SI_	11	288	1	96	48	4
TAP	11	336	0
TAP	12	0	1
STR	12	48	7
SI_	12	48	7	96	48	3
TAP	12	96	0
TAP	12	144	7
STR	12	192	0
SI_	12	192	0	96	48	2
SI_	12	192	0	96	48	4
TAP	12	288	0
STR	13	0	6
SI_	13	0	6	96	48	3
TAP	13	48	7
TAP	13	96	6
STR	13	144	0
SI_	13	144	0	96	48	4
TAP	13	192	7
TAP	13	240	0
STR	13	288	7
SI_	13	288	7	96	48	3
TAP	13	336	0
TAP	14	0	7
STR	14	48	1
SI_	14	48	1	96	48	4
TAP	14	96	0
TAP	14	144	1
STR	14	192	6
SI_	14	192	6	96	48	2
SI_	14	192	6	96	48	4
TAP	14	288	6
STR	15	0	0
SI_	15	0	0	96	48	5
TAP	15	48	7
TAP	15	96	0
STR	15	144	6
SI_	15	144	6	96	48	3
TAP	15	192	7
TAP	15	240	6
STR	15	288	1
SI_	15	288	1	96	48	4
TAP	15	336	0
TAP	16	0	1
STR	16	48	7
SI_	16	48	7	96	48	3
TAP	16	96	0
TAP	16	144	7
STR	16	192	1
SI_	16	192	1	96	48	3
SI_	16	192	1	96	48	5
TAP	16	288	1
TAP	17	0	4
TAP	17	0	7
TAP	17	48	6
TAP	17	96	5
TAP	17	144	0
TAP	17	144	4
TAP	17	192	1
TAP	17	240	2
TAP	17	288	3
TAP	17	288	6
TAP	17	336	5
TAP	18	0	0
TAP	18	0	4
TAP	18	48	1
TAP	18	96	2
TAP	18	144	3
TAP	18	144	7
BRK	18	192	3
BRK	18	192	7
TAP	18	288	0
TAP	18	288	1
TAP	18	312	7
TAP	18	336	6
TAP	18	360	5
TAP	19	0	3
HLD	19	0	4	96
TAP	19	48	2
TAP	19	96	1
HLD	19	144	0	96
TAP	19	144	7
TAP	19	192	6
TAP	19	240	5
TAP	19	288	3
TAP	19	288	4
TAP	19	336	2
TAP	19	336	5
STR	20	0	1
SCR	20	0	1	96	48	4
TAP	20	48	0
TAP	20	96	7
STR	20	144	6
SUL	20	144	6	96	72	3
TAP	20	192	3
TAP	21	0	2
HLD	21	0	4	96
TAP	21	48	1
TAP	21	96	0
TAP	21	144	6
HLD	21	144	7	96
TAP	21	192	5
TAP	21	240	4
TAP	21	288	2
TAP	21	288	3
TAP	21	336	1
TAP	21	336	4
STR	22	0	0
SCR	22	0	0	96	48	3
TAP	22	48	4
TAP	22	96	5
TAP	22	144	6
HLD	22	192	7	72
HLD	22	264	5	72
TAP	22	336	3
STR	23	0	7
SCR	23	0	7	96	48	2
TAP	23	48	6
TAP	23	96	5
STR	23	144	4
SCR	23	144	4	96	48	7
TAP	23	192	3
TAP	23	240	2
STR	23	288	1
SCR	23	288	1	96	48	4
TAP	23	336	0
TAP	24	0	7
STR	24	48	6
SCR	24	48	6	96	48	1
TAP	24	96	5
TAP	24	144	4
STR	24	192	3
SCR	24	192	3	96	48	6
TAP	24	240	2
TAP	24	288	1
TAP	24	336	0
TAP	25	0	7
TAP	25	48	0
TAP	25	48	6
TAP	25	96	1
TAP	25	96	5
TAP	25	144	2
TAP	25	144	4
TAP	25	192	1
TAP	25	192	5
TAP	25	240	0
TAP	25	240	6
TAP	25	288	7
TAP	25	336	1
TAP	25	336	5
TAP	25	360	2
TAP	25	360	4
BST	26	0	3
SCL	26	0	3	96	192	3
SCR	26	0	3	96	192	3
TAP	27	0	2
TAP	27	48	6
TAP	27	60	5
HLD	27	72	4	72
TAP	27	144	0
TAP	27	156	1
HLD	27	168	2	72
TAP	27	240	7
TAP	27	252	6
HLD	27	264	5	72
TAP	27	336	0
TAP	28	0	2
BRK	28	0	6
STR	28	48	1
SI_	28	48	1	96	48	4
TAP	28	72	0
TAP	28	96	1
TAP	28	144	0
TAP	28	144	1
STR	28	192	6
SI_	28	192	6	96	48	3
TAP	28	216	7
TAP	28	240	6
TAP	28	288	6
TAP	28	288	7
TAP	28	336	0
TAP	28	360	7
TAP	29	0	0
TAP	29	48	2
TAP	29	72	3
TAP	29	96	2
TAP	29	120	3
TAP	29	144	1
TAP	29	192	5
TAP	29	216	4
TAP	29	240	5
TAP	29	264	4
TAP	29	288	6
TAP	29	336	3
TAP	29	336	5
TAP	30	0	2
TAP	30	0	4
TAP	30	48	1
TAP	30	72	3
TAP	30	96	2
TAP	30	120	3
TAP	30	144	0
TAP	30	168	3
HLD	30	192	1	48
TAP	30	240	0
TAP	30	264	1
TAP	30	288	0
TAP	30	336	2
TAP	30	336	7
TAP	31	0	0
TAP	31	48	2
TAP	31	48	4
TAP	31	96	7
TAP	31	144	3
TAP	31	144	5
TAP	31	192	0
TAP	31	240	1
TAP	31	240	3
TAP	31	288	7
TAP	31	336	4
TAP	31	336	6
BRK	32	0	2
TAP	32	0	5
STR	32	48	6
SI_	32	48	6	96	48	3
TAP	32	72	7
TAP	32	96	6
TAP	32	144	6
TAP	32	144	7
STR	32	192	1
SI_	32	192	1	96	48	4
TAP	32	216	0
TAP	32	240	1
TAP	32	288	0
TAP	32	288	1
TAP	32	336	7
TAP	32	360	0
TAP	33	0	7
TAP	33	48	5
TAP	33	72	4
TAP	33	96	5
TAP	33	120	4
TAP	33	144	6
TAP	33	192	2
TAP	33	216	3
TAP	33	240	2
TAP	33	264	3
TAP	33	288	1
TAP	33	336	2
TAP	33	336	4
TAP	34	0	3
TAP	34	0	5
TAP	34	48	6
TAP	34	72	4
TAP	34	96	5
TAP	34	120	4
TAP	34	144	7
TAP	34	168	4
HLD	34	192	6	48
TAP	34	240	7
TAP	34	264	6
TAP	34	288	7
TAP	34	336	0
TAP	34	336	5
TAP	35	0	7
TAP	35	48	3
TAP	35	48	5
TAP	35	96	0
TAP	35	144	2
TAP	35	144	4
TAP	35	192	7
TAP	35	240	4
TAP	35	240	6
TAP	35	288	0
TAP	35	336	1
TAP	35	336	3
BRK	36	0	0
TAP	36	0	4
TAP	36	48	2
TAP	36	48	6
TAP	36	192	3
TAP	36	192	7
TAP	36	240	1
TAP	36	240	5
TAP	37	0	6
TAP	37	24	5
TAP	37	48	4
TAP	37	72	3
TAP	37	96	0
TAP	37	120	1
TAP	37	144	2
TAP	37	168	3
TAP	37	192	0
TAP	37	216	7
TAP	37	240	6
TAP	37	264	5
TAP	37	288	0
TAP	37	288	4
TAP	38	0	3
BRK	38	0	7
TAP	38	48	1
TAP	38	48	5
TAP	38	192	0
TAP	38	192	4
TAP	38	240	2
TAP	38	240	6
TAP	39	0	1
TAP	39	24	2
TAP	39	48	3
TAP	39	72	4
TAP	39	96	7
TAP	39	120	6
TAP	39	144	5
TAP	39	168	4
TAP	39	192	7
TAP	39	216	0
TAP	39	240	1
TAP	39	264	2
TAP	39	288	3
TAP	39	288	6
BST	40	0	2
SI_	40	0	2	96	48	0
BST	40	0	7
SI_	40	0	7	96	48	3
TAP	40	48	0
TAP	40	48	3
STR	40	192	0
SI_	40	192	0	96	48	4
STR	40	192	5
SI_	40	192	5	96	48	7
TAP	40	240	4
TAP	40	240	7
TAP	41	0	3
TAP	41	0	7
TAP	41	24	6
TAP	41	48	5
TAP	41	72	4
TAP	41	96	0
TAP	41	96	3
TAP	41	120	1
TAP	41	144	2
TAP	41	168	3
STR	41	192	0
SI_	41	192	0	96	48	4
TAP	41	192	4
TAP	41	216	7
TAP	41	240	6
TAP	41	264	5
BRK	41	288	0
BRK	41	288	4
BST	42	0	0
SI_	42	0	0	96	48	4
BST	42	0	5
SI_	42	0	5	96	48	7
TAP	42	48	4
TAP	42	48	7
STR	42	192	2
SI_	42	192	2	96	48	0
STR	42	192	7
SI_	42	192	7	96	48	3
TAP	42	240	0
TAP	42	240	3
TAP	43	0	0
TAP	43	0	4
TAP	43	24	1
TAP	43	48	2
TAP	43	72	3
TAP	43	96	4
TAP	43	96	7
TAP	43	120	6
TAP	43	144	5
TAP	43	168	4
TAP	43	192	3
STR	43	192	7
SI_	43	192	7	96	48	3
TAP	43	216	0
TAP	43	240	1
TAP	43	264	2
BRK	43	288	3
BRK	43	288	7
STR	44	0	1
SXL	44	0	1	96	96	4
TAP	44	48	4
TAP	44	96	5
TAP	44	144	6
STR	44	192	7
SXR	44	192	7	96	96	4
TAP	44	240	3
TAP	44	288	2
TAP	44	336	1
TAP	45	0	0
TAP	45	48	1
TAP	45	96	2
TAP	45	96	3
TAP	45	144	4
TAP	45	192	3
TAP	45	192	5
TAP	45	240	6
TAP	45	288	4
TAP	45	288	7
STR	46	0	6
SXR	46	0	6	96	96	3
TAP	46	48	3
TAP	46	96	2
TAP	46	144	1
STR	46	192	0
SXL	46	192	0	96	96	3
TAP	46	240	4
TAP	46	288	5
TAP	46	336	6
TAP	47	0	7
TAP	47	48	6
TAP	47	96	4
TAP	47	96	5
TAP	47	144	3
TAP	47	192	2
TAP	47	192	4
TAP	47	240	1
TAP	47	288	0
TAP	47	288	3
STR	48	0	1
SXL	48	0	1	96	96	4
TAP	48	48	4
TAP	48	96	5
TAP	48	144	6
STR	48	192	7
SXR	48	192	7	96	96	4
TAP	48	240	3
TAP	48	288	2
TAP	48	336	1
TAP	49	0	0
TAP	49	48	1
TAP	49	96	2
TAP	49	96	3
TAP	49	144	4
TAP	49	192	3
TAP	49	192	5
TAP	49	240	6
TAP	49	288	4
TAP	49	288	7
TAP	50	0	0
TAP	50	0	1
TAP	50	48	2
TAP	50	96	3
TAP	50	96	4
TAP	50	144	5
TAP	50	192	6
TAP	50	192	7
TAP	50	240	5
TAP	50	288	3
TAP	50	288	4
TAP	50	336	2
TAP	51	0	0
TAP	51	0	1
TAP	51	48	2
TAP	51	96	6
TAP	51	96	7
TAP	51	144	5
TAP	51	192	1
TAP	51	216	0
TAP	51	240	2
TAP	51	264	7
TAP	51	288	3
TAP	51	312	6
TAP	51	336	4
TAP	51	360	5
STR	52	0	2
SLL	52	0	2	96	96	4
TAP	52	48	4
TAP	52	96	5
TAP	52	144	6
STR	52	192	7
SLL	52	192	7	96	96	1
TAP	52	240	1
TAP	52	288	2
TAP	52	336	3
HLD	53	0	4	96
TAP	53	48	7
HLD	53	96	5	96
TAP	53	144	7
HLD	53	192	4	48
TAP	53	240	7
TAP	53	288	0
TAP	53	288	5
STR	54	0	5
SLR	54	0	5	96	96	3
TAP	54	48	3
TAP	54	96	2
TAP	54	144	1
STR	54	192	0
SLR	54	192	0	96	96	6
TAP	54	240	6
TAP	54	288	5
TAP	54	336	4
HLD	55	0	3	96
TAP	55	48	0
HLD	55	96	2	96
TAP	55	144	0
TAP	55	192	3
TAP	55	216	2
TAP	55	240	4
TAP	55	264	1
TAP	55	288	5
TAP	55	312	0
TAP	55	336	6
TAP	55	360	7
STR	56	0	6
SLL	56	0	6	96	96	0
TAP	56	48	0
TAP	56	96	1
TAP	56	144	2
STR	56	192	3
SLL	56	192	3	96	96	5
TAP	56	240	5
TAP	56	288	6
TAP	56	336	7
HLD	57	0	0	96
TAP	57	48	3
HLD	57	96	1	96
TAP	57	144	3
HLD	57	192	0	48
TAP	57	240	3
TAP	57	288	1
TAP	57	288	4
TAP	58	0	2
TAP	58	0	3
TAP	58	48	2
TAP	58	48	3
TAP	58	96	1
TAP	58	96	4
TAP	58	144	1
TAP	58	144	4
TAP	58	192	0
TAP	58	192	5
TAP	58	240	0
TAP	58	240	5
TAP	58	288	6
TAP	58	288	7
TAP	58	336	6
TAP	58	336	7
TAP	59	0	7
TAP	59	24	6
TAP	59	48	0
TAP	59	72	5
TAP	59	96	1
TAP	59	120	4
TAP	59	144	2
TAP	59	168	3
TAP	59	192	1
TAP	59	216	0
TAP	59	240	2
TAP	59	264	7
TAP	59	288	3
TAP	59	312	6
TAP	59	336	4
TAP	59	360	5
BRK	60	0	3
BST	60	0	6
SXL	60	0	6	96	192	3
STR	61	0	0
SCR	61	0	0	96	240	5
TAP	61	288	6
STR	62	0	7
SLL	62	0	7	96	192	3
TAP	62	144	3
TAP	62	288	1
STR	63	0	0
SLR	63	0	0	96	192	4
TAP	63	144	4
TAP	63	288	6
STR	64	0	7
SSR	64	0	7	96	192	3
STR	65	0	2
SCR	65	0	2	96	192	5
TAP	65	288	6
TAP	66	0	7
BRK	66	144	0
BRK	66	168	0
BRK	66	192	0
HLD	67	0	1	144
HLD	67	144	6	96
TAP	67	240	2
TAP	67	288	5
TAP	67	336	3
TAP	68	0	4
BRK	68	48	1
TAP	68	60	2
HLD	68	72	3	72
BRK	68	144	7
TAP	68	156	6
HLD	68	168	5	72
BRK	68	240	0
TAP	68	252	1
HLD	68	264	2	72
HLD	68	336	6	48
TAP	69	0	7
TAP	69	24	6
TAP	69	48	7
TAP	69	96	0
TAP	69	96	5
TAP	69	144	1
TAP	69	168	0
TAP	69	192	1
TAP	69	240	2
TAP	69	240	7
TAP	69	288	0
TAP	69	312	7
TAP	69	336	0
BRK	70	0	2
BRK	70	0	5
STR	70	48	6
SI_	70	48	6	96	48	3
TAP	70	72	7
TAP	70	96	5
TAP	70	144	0
TAP	70	144	6
STR	70	192	1
SI_	70	192	1	96	48	4
TAP	70	216	0
TAP	70	240	2
TAP	70	288	1
TAP	70	288	7
TAP	70	336	6
TAP	70	360	7
TAP	71	0	5
TAP	71	48	2
TAP	71	72	3
TAP	71	96	1
TAP	71	120	3
TAP	71	144	0
TAP	71	192	5
TAP	71	216	4
TAP	71	240	6
TAP	71	264	4
TAP	71	288	7
TAP	71	336	0
TAP	71	336	7
TAP	72	0	0
TAP	72	0	7
TAP	72	48	1
TAP	72	72	0
TAP	72	96	2
TAP	72	120	7
TAP	72	144	3
TAP	72	168	6
HLD	72	192	4	48
TAP	72	240	5
TAP	72	264	4
TAP	72	288	5
TAP	72	336	3
TAP	72	336	6
STR	73	0	1
SCR	73	0	1	96	48	4
TAP	73	0	4
TAP	73	48	0
TAP	73	96	1
STR	73	96	6
SCL	73	96	6	96	48	3
TAP	73	144	7
STR	73	192	1
SI_	73	192	1	96	48	5
TAP	73	192	6
TAP	73	240	0
BRK	73	288	1
TAP	73	288	7
BRK	74	0	2
BRK	74	0	6
STR	74	48	1
SI_	74	48	1	96	48	4
TAP	74	72	0
TAP	74	96	2
TAP	74	144	1
TAP	74	144	7
STR	74	192	6
SI_	74	192	6	96	48	3
TAP	74	216	7
TAP	74	240	5
TAP	74	288	0
TAP	74	288	6
TAP	74	336	1
TAP	74	360	0
TAP	75	0	2
TAP	75	48	5
TAP	75	72	4
TAP	75	96	6
TAP	75	120	4
TAP	75	144	7
TAP	75	192	2
TAP	75	216	3
TAP	75	240	1
TAP	75	264	3
TAP	75	288	0
TAP	75	336	0
TAP	75	336	7
TAP	76	0	0
TAP	76	0	7
TAP	76	48	6
TAP	76	72	7
TAP	76	96	5
TAP	76	120	0
TAP	76	144	4
TAP	76	168	1
HLD	76	192	3	48
TAP	76	240	2
TAP	76	264	3
TAP	76	288	2
TAP	76	336	1
TAP	76	336	4
TAP	77	0	3
STR	77	0	6
SCL	77	0	6	96	48	3
TAP	77	48	7
STR	77	96	1
SCR	77	96	1	96	48	4
TAP	77	96	6
TAP	77	144	0
TAP	77	192	1
STR	77	192	6
SI_	77	192	6	96	48	2
TAP	77	240	7
TAP	77	288	0
BRK	77	288	6
BRK	78	0	1
BRK	78	0	5
STR	78	48	6
SI_	78	48	6	96	48	3
TAP	78	72	7
TAP	78	96	5
TAP	78	144	2
TAP	78	144	6
STR	78	192	1
SI_	78	192	1	96	48	4
TAP	78	216	0
TAP	78	240	2
TAP	78	288	1
TAP	78	288	5
TAP	78	336	6
TAP	78	360	7
TAP	79	0	5
TAP	79	48	2
TAP	79	72	3
TAP	79	96	2
TAP	79	120	1
TAP	79	144	2
TAP	79	192	5
TAP	79	216	4
TAP	79	240	5
TAP	79	264	6
TAP	79	288	5
TAP	79	336	3
TAP	79	336	4
TAP	80	0	3
TAP	80	0	4
TAP	80	48	5
TAP	80	72	4
TAP	80	96	6
TAP	80	120	3
TAP	80	144	7
TAP	80	168	2
HLD	80	192	0	48
TAP	80	240	1
TAP	80	264	0
TAP	80	288	1
TAP	80	336	2
TAP	80	336	7
STR	81	0	0
SI_	81	0	0	96	48	5
TAP	81	0	6
TAP	81	48	7
STR	81	96	0
SI_	81	96	0	96	48	4
TAP	81	96	2
TAP	81	144	1
TAP	81	192	0
TAP	81	192	5
TAP	81	240	6
BRK	81	288	3
BRK	81	288	7
BRK	82	0	2
BRK	82	0	6
STR	82	48	1
SI_	82	48	1	96	48	4
TAP	82	72	0
TAP	82	96	2
TAP	82	144	1
TAP	82	144	5
STR	82	192	6
SI_	82	192	6	96	48	3
TAP	82	216	7
TAP	82	240	5
TAP	82	288	2
TAP	82	288	6
TAP	82	336	1
TAP	82	360	0
TAP	83	0	2
TAP	83	48	5
TAP	83	72	4
TAP	83	96	5
TAP	83	120	6
TAP	83	144	5
TAP	83	192	2
TAP	83	216	3
TAP	83	240	2
TAP	83	264	1
TAP	83	288	2
TAP	83	336	3
TAP	83	336	4
TAP	84	0	3
TAP	84	0	4
TAP	84	48	2
TAP	84	72	3
TAP	84	96	1
TAP	84	120	4
TAP	84	144	0
TAP	84	168	5
HLD	84	192	7	48
TAP	84	240	6
TAP	84	264	7
TAP	84	288	6
TAP	84	336	0
TAP	84	336	5
TAP	85	0	1
STR	85	0	7
SI_	85	0	7	96	48	2
TAP	85	48	0
TAP	85	96	5
STR	85	96	7
SI_	85	96	7	96	48	3
TAP	85	144	6
TAP	85	192	2
TAP	85	192	7
TAP	85	240	1
BRK	85	288	0
BRK	85	288	4
TAP	86	0	3
STR	86	0	7
SF_	86	0	7	96	48	3
TAP	86	48	1
TAP	86	48	5
TAP	86	192	0
TAP	86	192	4
TAP	86	240	2
TAP	86	240	6
TAP	87	0	7
TAP	87	16	6
TAP	87	32	5
TAP	87	48	1
TAP	87	64	2
TAP	87	80	3
TAP	87	96	0
TAP	87	112	1
TAP	87	128	2
TAP	87	144	6
TAP	87	160	5
TAP	87	176	4
TAP	87	192	7
TAP	87	204	6
TAP	87	216	5
TAP	87	228	4
TAP	87	240	3
TAP	87	252	2
TAP	87	264	1
TAP	87	276	0
BRK	87	288	3
BRK	87	288	7
STR	88	0	0
SF_	88	0	0	96	48	4
TAP	88	0	4
TAP	88	48	2
TAP	88	48	6
TAP	88	192	3
TAP	88	192	7
TAP	88	240	1
TAP	88	240	5
TAP	89	0	0
TAP	89	16	1
TAP	89	32	2
TAP	89	48	6
TAP	89	64	5
TAP	89	80	4
TAP	89	96	7
TAP	89	112	6
TAP	89	128	5
TAP	89	144	1
TAP	89	160	2
TAP	89	176	3
TAP	89	192	0
TAP	89	204	1
TAP	89	216	2
TAP	89	228	3
TAP	89	240	4
TAP	89	252	5
TAP	89	264	6
TAP	89	276	7
BRK	89	288	0
BRK	89	288	4
STR	90	0	1
SCL	90	0	1	96	1584	6
STR	90	0	6
SI_	90	0	6	96	1584	3
BRK	90	96	1
BRK	90	96	6

T_REC_TAP	732
T_REC_BRK	38
T_REC_XTP	0
T_REC_HLD	32
T_REC_XHO	0
T_REC_STR	79
T_REC_BST	6
T_REC_XST	0
T_REC_TTP	0
T_REC_THO	0
T_REC_SLD	89
T_REC_ALL	976
T_NUM_TAP	811
T_NUM_BRK	44
T_NUM_HLD	32
T_NUM_SLD	89
T_NUM_ALL	976
T_JUDGE_TAP	855
T_JUDGE_HLD	65
T_JUDGE_SLD	89
T_JUDGE_ALL	1009
TTM_EACHPAIRS	169
TTM_SCR_TAP	405500
TTM_SCR_BRK	114400
TTM_SCR_HLD	32000
TTM_SCR_SLD	133500
TTM_SCR_ALL	685400
TTM_SCR_S	660600
TTM_SCR_SS	681000
TTM_RAT_ACV	10064

