VERSION	0.00.00	1.03.00
FES_MODE	0
BPM_DEF	182.000	182.000	182.000	182.000
MET_DEF	4	4
RESOLUTION	384
CLK_DEF	384
COMPATIBLE_CODE	MA2

BPM	0	0	182.000
MET	0	0	4	4

TAP	2	0	0
TAP	2	0	1
TAP	2	48	7
TAP	2	192	6
TAP	2	192	7
STR	2	240	5
SCL	2	240	5	96	96	2
TAP	3	240	3
TAP	3	288	4
TAP	3	336	5
TAP	4	0	6
TAP	4	0	7
TAP	4	48	0
TAP	4	192	0
TAP	4	192	1
STR	4	240	2
SCR	4	240	2	96	96	5
TAP	5	48	2
TAP	5	96	3
TAP	5	144	4
TAP	5	240	1
TAP	5	288	0
TAP	5	336	7
TAP	6	0	5
TAP	6	0	6
TAP	6	48	4
TAP	6	192	2
TAP	6	192	3
STR	6	240	5
SCL	6	240	5	96	96	2
TAP	7	240	6
TAP	7	288	7
TAP	7	336	0
TAP	8	0	1
TAP	8	0	2
TAP	8	48	3
TAP	8	192	4
TAP	8	192	5
STR	8	240	3
SCR	8	240	3	96	96	6
TAP	10	0	3
STR	10	48	3
SI_	10	48	3	96	48	7
STR	10	192	4
SI_	10	192	4	96	48	0
TAP	11	0	6
TAP	11	0	7
TAP	11	48	5
TAP	11	96	4
TAP	11	144	3
TAP	11	192	2
TAP	11	240	1
TAP	11	288	0
TAP	11	288	7
TAP	11	336	1
TAP	12	0	2
TAP	12	48	3
TAP	12	96	4
TAP	12	144	5
STR	12	192	6
SCL	12	192	6	96	48	3
TAP	12	192	7
TAP	13	0	0
TAP	13	0	1
TAP	13	48	2
TAP	13	96	3
TAP	13	144	4
TAP	13	192	5
TAP	13	240	6
TAP	13	288	0
TAP	13	288	7
TAP	13	336	6
TAP	14	0	5
TAP	14	48	4
TAP	14	96	3
TAP	14	144	2
TAP	14	192	0
STR	14	192	1
SCR	14	192	1	96	48	4
TAP	15	0	6
TAP	15	0	7
TAP	15	48	5
TAP	15	96	4
TAP	15	144	2
TAP	15	144	3
TAP	15	192	1
TAP	15	240	0
TAP	15	288	6
TAP	15	288	7
TAP	15	336	5
TAP	16	0	4
TAP	16	48	2
TAP	16	48	3
TAP	16	96	1
TAP	16	144	0
TAP	16	192	6
STR	16	192	7
SI_	16	192	7	96	48	2
TAP	17	0	0
TAP	17	0	1
TAP	17	48	2
TAP	17	96	3
TAP	17	144	4
TAP	17	144	5
TAP	17	192	6
TAP	17	240	7
TAP	17	288	0
TAP	17	288	1
TAP	17	336	2
TAP	18	0	3
TAP	18	48	4
TAP	18	48	5
TAP	18	96	6
TAP	18	144	7
STR	18	192	0
SI_	18	192	0	96	48	5
TAP	18	192	1
HLD	19	0	6	144
TAP	19	48	5
TAP	19	96	4
HLD	19	144	3	144
TAP	19	192	2
TAP	19	240	1
HLD	19	288	0	144
TAP	19	336	1
TAP	20	0	2
HLD	20	48	3	144
TAP	20	96	4
TAP	20	144	5
STR	20	192	6
SI_	20	192	6	96	48	2
HLD	21	0	1	144
TAP	21	48	2
TAP	21	96	3
HLD	21	144	4	144
TAP	21	192	5
TAP	21	240	6
HLD	21	288	7	144
TAP	21	336	6
TAP	22	0	5
HLD	22	48	4	144
TAP	22	96	3
TAP	22	144	2
STR	22	192	1
SI_	22	192	1	96	48	5
STR	23	0	6
SCL	23	0	6	96	48	3
TAP	23	48	7
TAP	23	96	0
STR	23	144	1
SCL	23	144	1	96	48	6
TAP	23	192	2
TAP	23	240	3
STR	23	288	4
SCL	23	288	4	96	48	1
TAP	23	336	5
TAP	24	0	6
STR	24	48	7
SCL	24	48	7	96	48	4
TAP	24	96	0
TAP	24	144	1
STR	24	192	2
SCL	24	192	2	96	48	7
STR	25	0	1
SCR	25	0	1	96	48	4
TAP	25	48	0
TAP	25	96	7
STR	25	144	6
SCR	25	144	6	96	48	1
TAP	25	192	5
TAP	25	240	4
STR	25	288	3
SCR	25	288	3	96	96	6
STR	26	0	6
SCR	26	0	6	96	96	1
TAP	27	0	1
STR	27	48	1
SI_	27	48	1	96	48	4
STR	27	144	7
SI_	27	144	7	96	48	4
STR	27	240	0
SI_	27	240	0	96	48	4
TAP	27	336	7
BRK	28	0	7
TAP	28	48	1
TAP	28	72	0
TAP	28	96	1
TAP	28	144	7
TAP	28	192	6
TAP	28	240	5
TAP	28	288	4
TAP	28	336	2
TAP	28	360	3
TAP	29	0	2
TAP	29	48	1
TAP	29	96	0
TAP	29	144	7
TAP	29	192	6
TAP	29	240	5
TAP	29	264	4
TAP	29	288	5
TAP	29	336	2
TAP	30	0	3
TAP	30	48	4
TAP	30	96	5
TAP	30	144	6
TAP	30	168	7
TAP	30	192	6
TAP	30	240	3
TAP	30	288	2
TAP	30	336	1
STR	31	0	0
SI_	31	0	0	96	48	3
TAP	31	48	0
STR	31	96	6
SI_	31	96	6	96	48	3
TAP	31	144	6
STR	31	192	0
SCR	31	192	0	96	48	3
TAP	31	240	0
STR	31	288	7
SI_	31	288	7	96	48	3
TAP	31	336	7
TAP	32	0	0
TAP	32	48	6
TAP	32	72	7
TAP	32	96	6
TAP	32	144	0
TAP	32	192	1
TAP	32	240	2
TAP	32	288	3
TAP	32	336	5
TAP	32	360	4
TAP	33	0	5
TAP	33	48	6
TAP	33	96	7
TAP	33	144	0
TAP	33	192	1
TAP	33	240	2
TAP	33	264	3
TAP	33	288	2
TAP	33	336	5
TAP	34	0	4
TAP	34	48	3
TAP	34	96	2
TAP	34	144	1
TAP	34	168	0
TAP	34	192	1
TAP	34	240	4
TAP	34	288	5
TAP	34	336	6
STR	35	0	7
SI_	35	0	7	96	48	4
TAP	35	48	7
STR	35	96	1
SI_	35	96	1	96	48	4
TAP	35	144	1
STR	35	192	7
SCL	35	192	7	96	48	4
TAP	35	240	7
STR	35	288	0
SI_	35	288	0	96	48	4
TAP	35	336	0
STR	36	0	7
SI_	36	0	7	96	48	3
TAP	36	48	7
STR	36	192	0
SI_	36	192	0	96	48	4
TAP	36	240	0
STR	37	0	7
SI_	37	0	7	96	48	3
STR	37	48	3
SI_	37	48	3	96	48	6
STR	37	96	6
SI_	37	96	6	96	96	2
STR	37	192	2
SCL	37	192	2	96	96	7
BRK	37	288	7
STR	38	0	6
SI_	38	0	6	96	48	3
TAP	38	48	6
STR	38	192	1
SI_	38	192	1	96	48	4
TAP	38	240	1
STR	39	0	0
SI_	39	0	0	96	48	4
STR	39	48	4
SI_	39	48	4	96	48	1
STR	39	96	1
SI_	39	96	1	96	96	5
STR	39	192	5
SCR	39	192	5	96	96	0
BRK	39	288	0
STR	40	0	1
SCL	40	0	1	96	48	6
STR	40	48	6
SCL	40	48	6	96	48	3
STR	40	192	6
SCR	40	192	6	96	48	1
STR	40	240	1
SCR	40	240	1	96	48	4
TAP	41	0	5
TAP	41	48	4
TAP	41	96	3
TAP	41	144	2
STR	41	192	1
SCR	41	192	1	96	48	4
TAP	41	240	0
BRK	41	288	7
STR	42	0	6
SCR	42	0	6	96	48	1
STR	42	48	1
SCR	42	48	1	96	48	4
STR	42	192	1
SCL	42	192	1	96	48	6
STR	42	240	6
SCL	42	240	6	96	48	3
TAP	43	0	2
TAP	43	48	3
TAP	43	96	4
TAP	43	144	5
STR	43	192	6
SCL	43	192	6	96	48	3
TAP	43	240	7
BRK	43	288	0
TAP	43	336	1
TAP	44	0	2
TAP	44	0	3
TAP	44	48	1
TAP	44	96	0
TAP	44	144	7
TAP	44	192	6
STR	44	240	5
SCR	44	240	5	96	48	0
TAP	44	288	4
TAP	44	336	3
TAP	45	48	1
TAP	45	96	1
TAP	45	144	2
TAP	45	168	3
TAP	45	192	2
TAP	45	240	0
TAP	45	288	7
TAP	45	336	6
TAP	46	0	4
TAP	46	0	5
TAP	46	48	6
TAP	46	96	7
TAP	46	144	0
TAP	46	192	1
STR	46	240	2
SCL	46	240	2	96	48	7
TAP	46	288	3
TAP	46	336	4
TAP	47	48	6
TAP	47	96	6
TAP	47	144	5
TAP	47	168	4
TAP	47	192	5
TAP	47	240	3
TAP	47	288	2
TAP	47	336	1
TAP	48	0	0
STR	48	0	7
SCR	48	0	7	96	48	2
TAP	48	48	6
TAP	48	96	5
TAP	48	144	4
TAP	48	192	3
STR	48	240	2
SCR	48	240	2	96	48	5
TAP	48	288	1
TAP	48	336	0
TAP	49	48	0
TAP	49	96	1
TAP	49	144	2
TAP	49	168	3
TAP	49	191	2
TAP	49	240	4
TAP	49	288	5
TAP	49	336	6
STR	50	0	0
SCL	50	0	0	96	48	5
TAP	50	0	7
TAP	50	48	1
TAP	50	96	2
TAP	50	144	3
TAP	50	192	4
STR	50	240	5
SCL	50	240	5	96	48	2
TAP	50	288	6
TAP	50	336	7
TAP	51	48	1
TAP	51	96	1
TAP	51	144	2
TAP	51	168	3
TAP	51	192	2
TAP	51	240	4
TAP	51	288	5
TAP	51	336	6
HLD	52	0	7	192
TAP	52	48	6
TAP	52	96	5
TAP	52	144	4
HLD	52	192	3	96
TAP	52	240	4
STR	52	288	5
SCL	52	288	5	96	48	2
TAP	52	336	6
TAP	53	48	0
TAP	53	96	1
TAP	53	144	2
TAP	53	168	3
TAP	53	192	2
TAP	53	240	5
TAP	53	288	6
TAP	53	336	7
HLD	54	0	0	192
TAP	54	48	1
TAP	54	96	2
TAP	54	144	3
HLD	54	192	4	96
TAP	54	240	3
STR	54	288	2
SCR	54	288	2	96	48	5
TAP	54	336	1
TAP	55	48	7
TAP	55	96	6
TAP	55	144	5
TAP	55	168	4
TAP	55	192	5
TAP	55	240	2
TAP	55	288	1
TAP	55	336	0
STR	56	0	7
SCR	56	0	7	96	48	2
TAP	56	48	6
TAP	56	96	5
TAP	56	144	4
TAP	56	192	3
TAP	56	240	2
STR	56	288	1
SCR	56	288	1	96	48	4
TAP	56	336	0
TAP	57	48	5
TAP	57	96	4
TAP	57	144	2
TAP	57	168	3
TAP	57	192	2
TAP	57	240	1
TAP	57	288	0
TAP	57	336	6
TAP	57	360	7
TAP	58	0	6
TAP	58	48	0
TAP	58	96	1
TAP	58	144	2
TAP	58	192	3
TAP	58	240	4
TAP	58	288	5
STR	58	336	6
SCL	58	336	6	96	48	3
STR	59	48	0
SCL	59	48	0	96	48	5
STR	59	144	2
SCL	59	144	2	96	48	7
STR	59	240	4
SCL	59	240	4	96	48	1
STR	59	336	7
SI_	59	336	7	96	144	3
TAP	60	0	7
TAP	60	240	7
STR	60	288	6
SCL	60	288	6	96	96	3
TAP	60	336	2
STR	61	0	3
SCL	61	0	3	96	96	0
TAP	61	240	0
STR	61	288	1
SCR	61	288	1	96	96	4
TAP	61	336	5
STR	62	0	4
SCR	62	0	4	96	96	7
HLD	62	144	0	144
TAP	62	288	1
TAP	62	336	2
TAP	63	0	3
HLD	63	144	7	96
TAP	63	240	6
TAP	63	288	5
TAP	63	336	4
STR	64	0	3
SCR	64	0	3	96	192	6
STR	65	0	6
SCL	65	0	6	96	192	3
TAP	65	240	6
TAP	65	288	5
TAP	65	336	4
TAP	66	0	3
TAP	66	144	2
TAP	66	168	3
STR	66	192	2
SCR	66	192	2	96	96	5
HLD	67	0	6	144
HLD	67	144	7	96
TAP	67	240	0
TAP	67	288	7
TAP	67	336	6
TAP	68	0	5
STR	68	48	4
SI_	68	48	4	96	48	0
STR	68	144	3
SI_	68	144	3	96	48	7
STR	68	240	0
SI_	68	240	0	96	48	4
TAP	69	0	6
TAP	69	24	7
TAP	69	48	6
TAP	69	96	4
TAP	69	144	1
TAP	69	168	0
TAP	69	192	1
TAP	69	240	3
TAP	69	288	7
TAP	69	312	0
TAP	69	336	7
BRK	70	0	0
BRK	70	0	5
TAP	70	48	6
TAP	70	72	7
TAP	70	96	6
TAP	70	144	2
TAP	70	144	7
TAP	70	192	1
TAP	70	216	0
TAP	70	240	1
TAP	70	288	1
TAP	70	288	4
TAP	70	336	2
TAP	70	360	3
TAP	71	0	2
TAP	71	48	3
TAP	71	48	6
TAP	71	96	5
TAP	71	120	4
TAP	71	144	5
TAP	71	192	1
TAP	71	192	4
TAP	71	240	2
TAP	71	264	3
TAP	71	288	2
TAP	71	336	4
TAP	72	0	5
TAP	72	48	6
TAP	72	72	7
TAP	72	96	6
TAP	72	144	2
TAP	72	168	3
TAP	72	192	2
TAP	72	240	4
TAP	72	288	5
TAP	72	336	6
STR	73	0	7
SI_	73	0	7	96	48	2
TAP	73	48	7
STR	73	96	1
SI_	73	96	1	96	48	4
TAP	73	144	1
STR	73	192	6
SI_	73	192	6	96	48	3
TAP	73	240	6
STR	73	288	0
SI_	73	288	0	96	48	5
TAP	73	336	0
BRK	74	0	7
TAP	74	48	1
TAP	74	72	0
TAP	74	96	1
TAP	74	144	0
TAP	74	144	5
TAP	74	192	6
TAP	74	216	7
TAP	74	240	6
TAP	74	288	3
TAP	74	288	6
TAP	74	336	5
TAP	74	360	4
TAP	75	0	5
TAP	75	48	1
TAP	75	48	4
TAP	75	96	2
TAP	75	120	3
TAP	75	144	2
TAP	75	192	3
TAP	75	192	6
TAP	75	240	5
TAP	75	264	4
TAP	75	288	5
TAP	75	336	3
TAP	76	0	2
TAP	76	48	1
TAP	76	72	0
TAP	76	96	1
TAP	76	144	5
TAP	76	168	4
TAP	76	192	5
TAP	76	240	3
TAP	76	288	2
TAP	76	336	1
STR	77	0	0
SI_	77	0	0	96	48	5
TAP	77	48	0
STR	77	96	6
SI_	77	96	6	96	48	3
TAP	77	144	6
STR	77	192	1
SI_	77	192	1	96	48	4
TAP	77	240	1
STR	77	288	7
SI_	77	288	7	96	48	2
TAP	77	336	7
BRK	78	0	0
TAP	78	48	6
TAP	78	72	7
TAP	78	96	6
TAP	78	144	2
TAP	78	144	7
TAP	78	192	1
TAP	78	216	0
TAP	78	240	1
TAP	78	288	1
TAP	78	288	4
TAP	78	336	2
TAP	78	360	3
TAP	79	0	2
TAP	79	48	5
TAP	79	72	4
TAP	79	96	6
TAP	79	120	4
TAP	79	144	5
TAP	79	192	2
TAP	79	216	3
TAP	79	240	1
TAP	79	264	3
TAP	79	288	2
TAP	79	336	5
TAP	79	336	7
TAP	80	0	6
TAP	80	48	2
TAP	80	72	3
TAP	80	96	1
TAP	80	120	4
TAP	80	144	2
TAP	80	168	3
TAP	80	192	2
TAP	80	240	5
TAP	80	288	6
TAP	80	336	7
STR	81	0	0
SCL	81	0	0	96	48	5
TAP	81	48	0
STR	81	96	2
SCL	81	96	2	96	48	7
TAP	81	144	2
STR	81	192	4
SCL	81	192	4	96	48	1
TAP	81	240	4
STR	81	288	6
SCL	81	288	6	96	48	3
TAP	81	336	6
BRK	82	0	2
TAP	82	48	1
TAP	82	72	0
TAP	82	96	1
TAP	82	144	0
TAP	82	144	5
TAP	82	192	6
TAP	82	216	7
TAP	82	240	6
TAP	82	288	3
TAP	82	288	6
TAP	82	336	5
TAP	82	360	4
TAP	83	0	5
TAP	83	48	2
TAP	83	72	3
TAP	83	96	1
TAP	83	120	3
TAP	83	144	2
TAP	83	192	5
TAP	83	216	4
TAP	83	240	6
TAP	83	264	4
TAP	83	288	5
TAP	83	336	0
TAP	83	336	2
TAP	84	0	1
TAP	84	48	5
TAP	84	72	4
TAP	84	96	6
TAP	84	120	3
TAP	84	144	5
TAP	84	168	4
TAP	84	192	5
TAP	84	240	2
TAP	84	288	1
TAP	84	336	0
STR	85	0	7
SCR	85	0	7	96	48	2
TAP	85	48	7
STR	85	96	5
SCR	85	96	5	96	48	0
TAP	85	144	5
STR	85	192	3
SCR	85	192	3	96	48	6
TAP	85	240	3
STR	85	288	1
SCR	85	288	1	96	48	4
TAP	85	336	1
STR	86	0	0
SI_	86	0	0	96	48	5
BRK	86	48	0
STR	86	192	7
SCR	86	192	7	96	48	2
BRK	86	240	7
TAP	87	0	0
TAP	87	0	1
TAP	87	48	2
TAP	87	48	7
TAP	87	96	5
TAP	87	120	4
TAP	87	144	6
TAP	87	168	3
TAP	87	192	4
TAP	87	216	1
TAP	87	240	3
TAP	87	264	2
TAP	87	288	3
STR	88	0	7
SI_	88	0	7	96	48	2
BRK	88	48	7
STR	88	192	0
SCL	88	192	0	96	48	5
BRK	88	240	0
TAP	89	0	6
TAP	89	0	7
TAP	89	48	0
TAP	89	48	5
TAP	89	96	2
TAP	89	120	3
TAP	89	144	1
TAP	89	168	4
TAP	89	192	3
TAP	89	216	6
TAP	89	240	4
TAP	89	264	5
TAP	89	288	4
STR	90	0	1
SCL	90	0	1	96	672	6
STR	90	0	6
SI_	90	0	6	96	672	3
BRK	90	96	1
BRK	90	96	6

T_REC_TAP	529
T_REC_BRK	16
T_REC_XTP	0
T_REC_HLD	16
T_REC_XHO	0
T_REC_STR	101
T_REC_BST	0
T_REC_XST	0
T_REC_TTP	0
T_REC_THO	0
T_REC_SLD	101
T_REC_ALL	763
T_NUM_TAP	630
T_NUM_BRK	16
T_NUM_HLD	16
T_NUM_SLD	101
T_NUM_ALL	763
T_JUDGE_TAP	646
T_JUDGE_HLD	46
T_JUDGE_SLD	101
T_JUDGE_ALL	793
TTM_EACHPAIRS	49
TTM_SCR_TAP	315000
TTM_SCR_BRK	41600
TTM_SCR_HLD	16000
TTM_SCR_SLD	151500
TTM_SCR_ALL	524100
TTM_SCR_S	506850
TTM_SCR_SS	522500
TTM_RAT_ACV	10030

