VERSION	0.00.00	1.03.00
FES_MODE	0
BPM_DEF	182.000	182.000	182.000	182.000
MET_DEF	4	4
RESOLUTION	384
CLK_DEF	384
COMPATIBLE_CODE	MA2

BPM	0	0	182.000
MET	0	0	4	4

TAP	2	0	2
TAP	2	0	3
TAP	2	48	2
TAP	2	48	3
TAP	2	192	5
TAP	2	192	6
TAP	2	240	5
TAP	2	240	6
STR	2	336	0
SCL	2	336	0	96	144	5
TAP	2	336	1
TAP	4	0	0
TAP	4	0	6
TAP	4	48	0
TAP	4	48	6
TAP	4	192	2
TAP	4	192	4
TAP	4	240	2
TAP	4	240	4
HLD	4	336	6	192
HLD	5	144	5	144
TAP	6	0	4
TAP	6	0	5
TAP	6	48	4
TAP	6	48	5
TAP	6	192	1
TAP	6	192	2
TAP	6	240	1
TAP	6	240	2
STR	6	336	6
SCL	6	336	6	96	144	3
STR	6	336	7
SCR	6	336	7	96	144	2
TAP	8	0	1
TAP	8	0	7
TAP	8	48	1
TAP	8	48	7
TAP	8	192	3
TAP	8	192	5
TAP	8	240	3
TAP	8	240	5
STR	8	336	1
SI_	8	336	1	96	240	5
TAP	9	288	7
STR	9	336	7
SCR	9	336	7	96	240	2
TAP	11	0	1
TAP	11	96	3
TAP	11	144	2
TAP	11	240	4
TAP	11	288	3
TAP	12	0	5
TAP	12	48	4
TAP	12	144	6
TAP	12	192	0
TAP	12	288	0
TAP	12	288	7
TAP	13	0	6
TAP	13	96	4
TAP	13	144	5
TAP	13	240	3
TAP	13	288	4
TAP	14	0	2
TAP	14	48	3
TAP	14	144	1
TAP	14	192	7
TAP	14	288	0
TAP	14	288	7
TAP	15	0	6
TAP	15	96	1
TAP	15	144	5
TAP	15	240	2
TAP	15	288	0
TAP	16	0	3
TAP	16	48	5
TAP	16	144	4
TAP	16	192	1
TAP	16	288	1
TAP	16	288	6
TAP	17	0	1
TAP	17	48	0
TAP	17	96	7
TAP	17	144	6
TAP	17	192	5
TAP	17	240	4
TAP	17	288	2
TAP	17	288	6
TAP	18	0	6
TAP	18	48	7
TAP	18	96	0
TAP	18	144	1
TAP	18	192	2
TAP	18	240	3
BRK	18	288	1
BRK	18	288	5
TAP	19	0	7
TAP	19	48	6
TAP	19	96	5
TAP	19	192	2
TAP	19	240	3
TAP	19	288	2
TAP	20	0	1
TAP	20	48	2
TAP	20	96	3
TAP	20	192	5
TAP	20	240	4
TAP	20	288	5
TAP	20	336	6
TAP	21	0	4
TAP	21	48	3
TAP	21	96	2
TAP	21	192	7
TAP	21	240	0
TAP	21	288	7
TAP	22	0	6
TAP	22	48	2
TAP	22	96	4
TAP	22	192	0
TAP	22	240	1
TAP	22	288	0
TAP	22	336	7
TAP	23	0	6
TAP	23	48	1
TAP	23	96	0
TAP	23	192	5
TAP	23	240	2
TAP	23	288	4
TAP	24	0	1
TAP	24	48	5
TAP	24	96	4
TAP	24	192	6
TAP	24	240	1
TAP	24	288	7
TAP	24	336	0
TAP	25	0	6
TAP	25	48	7
TAP	25	96	0
TAP	25	96	6
TAP	25	192	1
TAP	25	240	0
TAP	25	288	1
TAP	25	288	7
STR	26	0	3
SI_	26	0	3	96	192	7
HLD	27	0	6	288
TAP	28	0	2
TAP	28	48	4
TAP	28	96	2
TAP	28	144	4
TAP	28	192	6
TAP	28	240	4
TAP	28	288	6
TAP	28	336	0
TAP	29	0	6
TAP	29	48	0
TAP	29	96	2
TAP	29	144	0
TAP	29	192	2
TAP	29	240	4
TAP	29	288	1
TAP	29	288	6
TAP	30	0	1
TAP	30	48	1
TAP	30	96	4
TAP	30	144	3
TAP	30	192	7
TAP	30	240	7
TAP	30	288	3
TAP	30	336	4
TAP	31	0	0
TAP	31	48	0
TAP	31	96	1
TAP	31	144	1
TAP	31	192	2
TAP	31	240	3
TAP	31	288	4
TAP	32	0	5
TAP	32	48	3
TAP	32	96	5
TAP	32	144	3
TAP	32	192	1
TAP	32	240	3
TAP	32	288	1
TAP	32	336	7
TAP	33	0	1
TAP	33	48	7
TAP	33	96	5
TAP	33	144	7
TAP	33	192	5
TAP	33	240	3
TAP	33	288	1
TAP	33	288	6
TAP	34	0	6
TAP	34	48	6
TAP	34	96	3
TAP	34	144	4
TAP	34	192	0
TAP	34	240	0
TAP	34	288	4
TAP	34	336	3
TAP	35	0	7
TAP	35	48	7
TAP	35	96	6
TAP	35	144	6
TAP	35	192	5
TAP	35	240	4
TAP	35	288	3
TAP	36	0	1
TAP	36	48	0
TAP	36	192	5
TAP	36	240	4
BRK	37	0	0
BRK	37	0	1
TAP	37	48	2
TAP	37	48	7
TAP	37	144	4
TAP	37	240	5
TAP	37	288	3
TAP	37	288	6
TAP	38	0	6
TAP	38	48	7
TAP	38	192	2
TAP	38	240	3
BRK	39	0	6
BRK	39	0	7
TAP	39	48	0
TAP	39	48	5
TAP	39	144	3
TAP	39	240	2
TAP	39	288	1
TAP	39	288	4
TAP	40	0	0
TAP	40	0	1
TAP	40	48	0
TAP	40	48	1
TAP	40	96	2
TAP	40	192	4
TAP	40	192	5
TAP	40	240	4
TAP	40	240	5
TAP	40	288	6
TAP	41	0	0
TAP	41	0	6
TAP	41	48	0
TAP	41	48	6
TAP	41	144	1
TAP	41	240	2
TAP	41	288	3
TAP	41	288	5
TAP	42	0	6
TAP	42	0	7
TAP	42	48	6
TAP	42	48	7
TAP	42	96	5
TAP	42	192	2
TAP	42	192	3
TAP	42	240	2
TAP	42	240	3
TAP	42	288	1
TAP	43	0	1
TAP	43	0	7
TAP	43	48	1
TAP	43	48	7
TAP	43	144	6
TAP	43	240	5
BRK	43	288	2
BRK	43	288	4
TAP	44	0	0
TAP	44	48	1
TAP	44	96	2
TAP	44	192	4
TAP	44	240	1
TAP	44	288	3
STR	44	336	2
SI_	44	336	2	96	96	6
TAP	45	240	5
TAP	45	288	5
TAP	46	0	7
TAP	46	48	6
TAP	46	96	5
TAP	46	192	3
TAP	46	240	6
TAP	46	288	4
STR	46	336	0
SI_	46	336	0	96	96	4
STR	47	144	7
SI_	47	144	7	96	96	3
TAP	48	0	6
TAP	48	48	5
TAP	48	96	4
TAP	48	192	1
TAP	48	240	5
TAP	48	288	3
STR	48	336	4
SI_	48	336	4	96	96	0
TAP	49	240	6
TAP	49	288	6
TAP	50	0	7
TAP	50	48	0
TAP	50	96	1
TAP	50	192	5
TAP	50	240	0
TAP	50	288	4
HLD	50	336	1	192
TAP	51	96	3
HLD	51	144	3	144
TAP	51	288	4
TAP	52	0	1
TAP	52	0	5
TAP	52	48	0
TAP	52	96	7
TAP	52	192	2
TAP	52	192	6
TAP	52	240	5
TAP	52	288	4
STR	52	336	4
SCL	52	336	4	96	96	1
TAP	53	240	5
TAP	53	288	5
TAP	53	336	3
TAP	54	0	2
TAP	54	0	6
TAP	54	48	1
TAP	54	96	7
TAP	54	192	1
TAP	54	192	5
TAP	54	240	2
TAP	54	288	6
HLD	54	336	0	192
TAP	55	96	5
HLD	55	144	5	144
TAP	55	288	3
TAP	56	0	0
TAP	56	0	4
TAP	56	48	1
TAP	56	96	5
TAP	56	192	2
TAP	56	192	6
TAP	56	240	7
TAP	56	288	1
STR	56	336	1
SCR	56	336	1	96	96	4
TAP	57	240	4
TAP	57	288	4
TAP	57	336	3
TAP	58	0	1
TAP	58	0	5
TAP	58	48	2
TAP	58	96	4
TAP	58	192	2
TAP	58	192	6
TAP	58	240	5
TAP	58	288	3
HLD	58	336	7	720
HLD	59	336	3	336
TAP	61	0	0
TAP	61	288	1
TAP	62	0	2
TAP	62	288	7
TAP	63	0	6
TAP	63	288	5
TAP	64	0	3
TAP	64	288	2
TAP	65	0	4
TAP	65	0	5
TAP	65	144	5
TAP	65	240	6
TAP	65	336	7
TAP	66	0	0
TAP	66	0	2
TAP	66	144	1
TAP	66	240	0
TAP	66	336	7
TAP	67	0	1
TAP	67	0	6
TAP	67	144	4
TAP	67	240	3
TAP	67	336	2
STR	68	0	1
SCL	68	0	1	96	192	6
STR	68	0	5
SCL	68	0	5	96	192	2
TAP	69	0	0
TAP	69	0	1
TAP	69	96	6
TAP	69	144	6
TAP	69	144	7
TAP	69	240	0
BRK	69	288	1
BRK	69	288	6
TAP	70	0	0
TAP	70	48	5
TAP	70	96	4
TAP	70	144	7
TAP	70	192	2
TAP	70	240	3
TAP	70	288	0
TAP	70	336	5
TAP	71	0	4
TAP	71	48	6
TAP	71	96	2
TAP	71	144	3
TAP	71	192	2
TAP	71	240	5
TAP	71	288	3
TAP	71	336	4
TAP	72	0	2
TAP	72	48	3
TAP	72	96	1
TAP	72	144	4
TAP	72	192	0
TAP	72	240	5
TAP	72	288	7
TAP	72	336	6
TAP	73	0	1
HLD	73	48	1	96
TAP	73	96	2
HLD	73	144	2	96
TAP	73	192	3
HLD	73	240	3	48
BRK	73	288	4
TAP	74	0	7
TAP	74	48	2
TAP	74	96	3
TAP	74	144	0
TAP	74	192	5
TAP	74	240	4
TAP	74	288	6
TAP	74	336	2
TAP	75	0	3
TAP	75	48	1
TAP	75	96	5
TAP	75	144	4
TAP	75	192	5
TAP	75	240	2
TAP	75	288	4
TAP	75	336	3
TAP	76	0	5
TAP	76	48	4
TAP	76	96	6
TAP	76	144	3
TAP	76	192	7
TAP	76	240	2
TAP	76	288	0
TAP	76	336	1
TAP	77	0	6
HLD	77	48	6	96
TAP	77	96	5
HLD	77	144	5	96
TAP	77	192	4
HLD	77	240	4	48
BRK	77	288	3
TAP	78	0	0
TAP	78	48	1
TAP	78	96	2
TAP	78	144	6
TAP	78	192	5
TAP	78	240	4
TAP	78	288	1
TAP	78	336	2
TAP	79	0	3
TAP	79	48	5
TAP	79	96	4
TAP	79	144	2
TAP	79	168	3
TAP	79	192	2
TAP	79	240	4
TAP	79	288	6
TAP	79	336	7
TAP	80	0	0
TAP	80	48	4
TAP	80	96	1
TAP	80	144	5
TAP	80	192	2
TAP	80	240	6
TAP	80	288	3
TAP	80	336	7
STR	81	0	4
SI_	81	0	4	96	48	0
TAP	81	48	4
TAP	81	96	5
TAP	81	144	5
STR	81	192	6
SCL	81	192	6	96	48	3
TAP	81	240	6
BRK	81	288	7
TAP	82	0	7
TAP	82	48	6
TAP	82	96	5
TAP	82	144	1
TAP	82	192	2
TAP	82	240	3
TAP	82	288	6
TAP	82	336	5
TAP	83	0	4
TAP	83	48	2
TAP	83	96	3
TAP	83	144	5
TAP	83	168	4
TAP	83	192	5
TAP	83	240	3
TAP	83	288	1
TAP	83	336	0
TAP	84	0	7
TAP	84	48	3
TAP	84	96	6
TAP	84	144	2
TAP	84	192	5
TAP	84	240	1
TAP	84	288	4
TAP	84	336	0
STR	85	0	3
SI_	85	0	3	96	48	7
TAP	85	48	3
TAP	85	96	2
TAP	85	144	2
STR	85	192	1
SCR	85	192	1	96	48	4
TAP	85	240	1
BRK	85	288	0
TAP	86	0	1
TAP	86	48	0
TAP	86	48	2
TAP	86	192	5
TAP	86	240	4
TAP	86	240	6
TAP	87	0	2
TAP	87	48	1
STR	87	48	3
SI_	87	48	3	96	96	7
BRK	87	288	0
TAP	88	0	6
TAP	88	48	5
TAP	88	48	7
TAP	88	192	2
TAP	88	240	1
TAP	88	240	3
TAP	89	0	5
STR	89	48	4
SI_	89	48	4	96	96	0
TAP	89	48	6
BRK	89	288	7
STR	90	0	1
SI_	90	0	1	96	672	5
STR	90	0	7
SI_	90	0	7	96	672	3

T_REC_TAP	471
T_REC_BRK	16
T_REC_XTP	0
T_REC_HLD	15
T_REC_XHO	0
T_REC_STR	22
T_REC_BST	0
T_REC_XST	0
T_REC_TTP	0
T_REC_THO	0
T_REC_SLD	22
T_REC_ALL	546
T_NUM_TAP	493
T_NUM_BRK	16
T_NUM_HLD	15
T_NUM_SLD	22
T_NUM_ALL	546
T_JUDGE_TAP	509
T_JUDGE_HLD	59
T_JUDGE_SLD	22
T_JUDGE_ALL	590
TTM_EACHPAIRS	69
TTM_SCR_TAP	246500
TTM_SCR_BRK	41600
TTM_SCR_HLD	15000
TTM_SCR_SLD	33000
TTM_SCR_ALL	336100
TTM_SCR_S	324500
TTM_SCR_SS	334500
TTM_RAT_ACV	10047

