VERSION	0.00.00	1.03.00
FES_MODE	0
BPM_DEF	182.000	182.000	182.000	182.000
MET_DEF	4	4
RESOLUTION	384
CLK_DEF	384
COMPATIBLE_CODE	MA2

BPM	0	0	182.000
MET	0	0	4	4

TAP	2	0	0
HLD	2	192	0	144
TAP	4	0	7
HLD	4	192	7	144
TAP	6	0	0
TAP	6	0	1
TAP	6	192	1
BRK	6	336	0
TAP	8	0	6
TAP	8	0	7
TAP	8	192	6
BRK	8	336	7
STR	10	0	0
SI_	10	0	0	96	96	3
STR	10	0	7
SI_	10	0	7	96	96	4
TAP	11	0	2
TAP	11	192	7
TAP	12	0	1
TAP	12	192	0
TAP	12	288	0
TAP	13	0	0
TAP	13	192	6
TAP	14	0	7
TAP	14	192	5
TAP	14	288	5
TAP	15	0	5
TAP	15	192	7
TAP	16	0	0
TAP	16	192	2
TAP	16	288	2
TAP	17	0	2
TAP	17	0	3
TAP	17	192	4
TAP	17	192	5
STR	18	0	0
SI_	18	0	0	96	96	3
STR	18	0	7
SI_	18	0	7	96	96	4
TAP	19	0	0
TAP	19	96	1
TAP	20	0	6
TAP	20	96	5
TAP	21	0	2
TAP	21	96	3
TAP	22	0	4
TAP	22	96	4
TAP	22	192	3
TAP	22	288	3
TAP	23	0	5
TAP	23	96	4
TAP	24	0	1
TAP	24	96	0
TAP	25	0	6
TAP	25	96	7
HLD	26	0	0	672
HLD	26	0	7	672
TAP	28	0	0
TAP	28	96	0
TAP	28	192	1
TAP	28	288	1
TAP	29	0	2
TAP	29	96	2
TAP	29	192	3
TAP	29	288	3
TAP	30	0	4
TAP	30	96	4
TAP	30	192	5
TAP	30	288	5
TAP	31	0	6
TAP	31	96	6
TAP	31	192	7
BRK	31	288	7
STR	32	0	0
SI_	32	0	0	96	96	4
STR	33	0	7
SI_	33	0	7	96	96	3
STR	34	0	2
SI_	34	0	2	96	96	7
STR	35	0	5
SI_	35	0	5	96	96	0
TAP	36	0	1
TAP	36	48	1
TAP	36	192	6
TAP	36	240	6
BRK	37	0	0
BRK	37	48	0
TAP	38	0	5
TAP	38	48	5
TAP	38	192	2
TAP	38	240	2
BRK	39	0	7
BRK	39	48	7
HLD	40	0	1	192
HLD	41	0	3	192
HLD	42	0	5	192
HLD	43	0	7	192
TAP	44	0	1
TAP	44	96	0
TAP	44	192	7
TAP	44	288	6
TAP	45	0	5
TAP	45	96	4
TAP	45	192	3
TAP	45	288	2
TAP	46	0	2
TAP	46	96	3
TAP	46	192	4
TAP	46	288	5
HLD	47	0	6	144
TAP	47	144	5
TAP	48	0	7
TAP	48	96	0
TAP	48	192	1
TAP	48	288	2
TAP	49	0	3
TAP	49	96	4
TAP	49	192	5
TAP	49	288	6
TAP	50	0	6
TAP	50	96	5
TAP	50	192	4
TAP	50	288	3
HLD	51	0	2	144
TAP	51	144	3
TAP	52	0	0
TAP	52	96	4
TAP	52	96	5
TAP	52	288	2
TAP	52	288	3
TAP	53	96	6
TAP	53	96	7
TAP	53	288	0
TAP	53	288	1
TAP	54	96	0
TAP	54	96	4
TAP	54	288	1
TAP	54	288	5
TAP	55	96	2
TAP	55	96	6
TAP	55	192	2
TAP	55	192	6
BRK	55	288	3
BRK	55	288	7
TAP	56	0	6
TAP	56	96	4
TAP	56	96	5
TAP	56	288	2
TAP	56	288	3
TAP	57	96	6
TAP	57	96	7
TAP	57	288	0
TAP	57	288	1
TAP	58	96	3
TAP	58	96	4
HLD	58	288	5	384
STR	60	0	4
SI_	60	0	4	96	96	0
HLD	61	0	2	288
TAP	61	288	4
HLD	62	0	4	288
TAP	62	288	0
HLD	63	0	0	288
TAP	63	288	6
HLD	64	0	6	288
TAP	64	288	1
HLD	65	0	1	288
TAP	65	288	7
HLD	66	0	7	288
TAP	66	288	3
HLD	67	0	3	288
TAP	67	288	4
HLD	68	0	4	288
TAP	69	0	0
TAP	69	96	0
TAP	69	192	7
BRK	69	288	7
TAP	70	0	0
TAP	70	96	4
TAP	70	192	2
TAP	70	288	6
TAP	71	0	1
TAP	71	96	5
TAP	71	192	3
TAP	71	288	7
TAP	72	0	0
TAP	72	96	2
TAP	72	192	6
TAP	72	288	4
TAP	73	0	0
TAP	73	0	1
TAP	73	96	6
TAP	73	96	7
TAP	73	192	0
TAP	73	192	1
TAP	73	288	6
TAP	73	288	7
TAP	74	0	7
TAP	74	96	3
TAP	74	192	6
TAP	74	288	2
TAP	75	0	5
TAP	75	96	1
TAP	75	192	4
TAP	75	288	0
HLD	76	0	7	192
TAP	76	192	3
TAP	77	0	5
TAP	77	96	6
TAP	77	192	7
BRK	77	288	0
BRK	77	288	7
TAP	78	0	1
TAP	78	48	1
TAP	78	96	1
TAP	78	192	0
TAP	78	240	0
TAP	78	288	0
TAP	79	0	7
TAP	79	48	7
TAP	79	96	7
TAP	79	192	6
TAP	79	240	6
TAP	79	288	6
TAP	80	0	3
TAP	80	48	3
TAP	80	96	3
TAP	80	192	2
TAP	80	240	2
TAP	80	288	2
TAP	81	0	0
TAP	81	0	1
TAP	81	96	2
TAP	81	96	3
TAP	81	192	4
TAP	81	192	5
TAP	81	288	6
TAP	81	288	7
TAP	82	0	6
TAP	82	48	6
TAP	82	96	6
TAP	82	192	7
TAP	82	240	7
TAP	82	288	7
TAP	83	0	0
TAP	83	48	0
TAP	83	96	0
TAP	83	192	1
TAP	83	240	1
TAP	83	288	1
TAP	84	0	4
TAP	84	48	4
TAP	84	96	4
TAP	84	192	5
TAP	84	240	5
TAP	84	288	5
TAP	85	0	6
TAP	85	0	7
TAP	85	96	4
TAP	85	96	5
TAP	85	192	2
TAP	85	192	3
TAP	85	288	0
TAP	85	288	1
TAP	86	0	1
TAP	86	48	1
TAP	86	192	6
TAP	86	240	6
BRK	87	0	0
BRK	87	0	1
BRK	87	48	6
BRK	87	48	7
TAP	88	0	5
TAP	88	48	5
TAP	88	192	2
TAP	88	240	2
BRK	89	0	6
BRK	89	0	7
BRK	89	48	0
BRK	89	48	1
HLD	90	96	0	1248
HLD	90	96	7	1248

T_REC_TAP	222
T_REC_BRK	20
T_REC_XTP	0
T_REC_HLD	22
T_REC_XHO	0
T_REC_STR	9
T_REC_BST	0
T_REC_XST	0
T_REC_TTP	0
T_REC_THO	0
T_REC_SLD	9
T_REC_ALL	282
T_NUM_TAP	231
T_NUM_BRK	20
T_NUM_HLD	22
T_NUM_SLD	9
T_NUM_ALL	282
T_JUDGE_TAP	251
T_JUDGE_HLD	168
T_JUDGE_SLD	9
T_JUDGE_ALL	428
TTM_EACHPAIRS	39
TTM_SCR_TAP	115500
TTM_SCR_BRK	52000
TTM_SCR_HLD	22000
TTM_SCR_SLD	13500
TTM_SCR_ALL	203000
TTM_SCR_S	195000
TTM_SCR_SS	201000
TTM_RAT_ACV	10099

