VERSION	0.00.00	1.03.00
FES_MODE	0
BPM_DEF	182.000	182.000	182.000	182.000
MET_DEF	4	4
RESOLUTION	384
CLK_DEF	384
COMPATIBLE_CODE	MA2

BPM	0	0	182.000
MET	0	0	4	4

TAP	2	0	0
TAP	2	192	0
HLD	3	0	0	192
TAP	4	0	7
TAP	4	192	7
HLD	5	0	7	192
TAP	6	0	0
TAP	6	192	0
HLD	7	0	0	192
TAP	8	0	7
TAP	8	192	7
HLD	9	0	7	192
TAP	10	0	0
TAP	10	0	7
TAP	10	192	0
TAP	10	192	7
TAP	10	288	0
TAP	10	288	7
TAP	11	0	1
TAP	11	192	1
TAP	12	0	2
TAP	12	192	2
TAP	12	288	2
TAP	13	0	3
TAP	13	192	3
TAP	14	0	4
TAP	14	192	4
TAP	14	288	4
TAP	15	0	5
TAP	15	192	5
TAP	16	0	6
TAP	16	192	6
TAP	16	288	6
TAP	17	0	7
TAP	17	192	7
HLD	18	0	0	288
TAP	19	0	7
TAP	19	192	7
STR	20	0	7
SI_	20	0	7	96	96	2
TAP	21	0	2
TAP	21	192	2
STR	22	0	2
SI_	22	0	2	96	96	5
TAP	23	0	5
TAP	23	192	5
STR	24	0	5
SI_	24	0	5	96	96	0
TAP	25	0	0
TAP	25	0	1
TAP	25	192	0
TAP	25	192	1
HLD	26	0	0	672
HLD	26	0	1	672
TAP	28	0	1
TAP	28	192	1
TAP	29	0	0
TAP	29	192	0
STR	30	0	7
SI_	30	0	7	96	96	3
STR	31	0	0
SI_	31	0	0	96	96	4
TAP	32	0	6
TAP	32	192	6
TAP	33	0	7
TAP	33	192	7
STR	34	0	0
SI_	34	0	0	96	96	4
STR	35	0	7
SI_	35	0	7	96	96	3
TAP	36	0	1
TAP	36	192	1
BRK	37	0	1
TAP	38	0	6
TAP	38	192	6
BRK	39	0	6
TAP	40	0	2
TAP	40	192	1
BRK	41	0	0
BRK	41	0	1
TAP	42	0	5
TAP	42	192	6
BRK	43	0	6
BRK	43	0	7
TAP	44	0	6
TAP	44	192	6
HLD	45	0	5	192
TAP	46	0	4
TAP	46	192	4
TAP	47	0	2
TAP	47	0	3
TAP	47	192	2
TAP	47	192	3
TAP	48	0	1
TAP	48	192	1
HLD	49	0	2	192
TAP	50	0	3
TAP	50	192	3
TAP	51	0	4
TAP	51	0	5
TAP	51	192	4
TAP	51	192	5
TAP	52	0	5
TAP	52	96	5
TAP	52	192	5
HLD	53	0	6	192
TAP	54	0	7
TAP	54	96	7
TAP	54	192	7
TAP	55	0	0
TAP	55	0	1
TAP	55	192	0
TAP	55	192	1
TAP	56	0	1
TAP	56	96	1
TAP	56	192	1
HLD	57	0	0	192
TAP	58	0	7
TAP	58	96	7
TAP	58	192	7
HLD	59	0	6	672
HLD	60	0	7	288
TAP	61	0	5
TAP	62	0	4
TAP	63	0	3
TAP	64	0	2
HLD	65	0	3	192
HLD	66	0	5	192
HLD	67	0	1	192
HLD	68	0	7	192
TAP	69	0	0
TAP	69	96	0
TAP	69	192	0
TAP	69	288	0
TAP	70	0	0
TAP	70	96	0
TAP	70	192	7
TAP	71	0	0
TAP	71	96	0
TAP	71	192	6
HLD	72	0	0	192
HLD	73	0	7	192
TAP	74	0	7
TAP	74	96	7
TAP	74	192	0
TAP	75	0	7
TAP	75	96	7
TAP	75	192	1
HLD	76	0	7	192
HLD	77	0	0	192
TAP	78	0	0
TAP	78	96	0
TAP	78	192	0
TAP	78	192	7
TAP	79	0	0
TAP	79	96	0
TAP	79	192	0
TAP	79	192	6
STR	80	0	7
SI_	80	0	7	96	96	3
STR	81	0	0
SI_	81	0	0	96	96	4
TAP	82	0	7
TAP	82	96	7
TAP	82	192	0
TAP	82	192	7
TAP	83	0	7
TAP	83	96	7
TAP	83	192	1
TAP	83	192	7
STR	84	0	0
SI_	84	0	0	96	96	4
STR	85	0	7
SI_	85	0	7	96	96	3
TAP	86	0	1
TAP	86	192	1
BRK	87	0	1
TAP	88	0	6
TAP	88	192	6
BRK	89	0	6
TAP	90	96	0
TAP	90	96	7

T_REC_TAP	131
T_REC_BRK	8
T_REC_XTP	0
T_REC_HLD	21
T_REC_XHO	0
T_REC_STR	11
T_REC_BST	0
T_REC_XST	0
T_REC_TTP	0
T_REC_THO	0
T_REC_SLD	11
T_REC_ALL	182
T_NUM_TAP	142
T_NUM_BRK	8
T_NUM_HLD	21
T_NUM_SLD	11
T_NUM_ALL	182
T_JUDGE_TAP	150
T_JUDGE_HLD	118
T_JUDGE_SLD	11
T_JUDGE_ALL	279
TTM_EACHPAIRS	19
TTM_SCR_TAP	71000
TTM_SCR_BRK	20800
TTM_SCR_HLD	21000
TTM_SCR_SLD	16500
TTM_SCR_ALL	129300
TTM_SCR_S	124650
TTM_SCR_SS	128500
TTM_RAT_ACV	10062

