VERSION	0.00.00	1.03.00
FES_MODE	0
BPM_DEF	154.000	154.000	154.000	154.000
MET_DEF	4	4
RESOLUTION	384
CLK_DEF	384
COMPATIBLE_CODE	MA2

BPM	0	0	154.000
MET	0	0	4	4

TAP	1	0	2
TAP	1	72	3
TAP	1	144	4
HLD	1	216	5	72
TAP	1	288	4
TAP	1	336	4
TAP	2	0	5
TAP	2	72	4
TAP	2	144	3
HLD	2	216	2	72
TAP	2	288	3
TAP	2	336	3
TAP	3	0	2
TAP	3	72	3
TAP	3	144	4
HLD	3	216	5	72
TAP	3	288	4
TAP	3	336	4
TAP	4	0	5
TAP	4	72	4
TAP	4	144	3
HLD	4	216	2	72
TAP	4	288	3
TAP	4	336	3
HLD	5	0	1	0
HLD	5	72	3	0
HLD	5	144	4	0
HLD	5	216	6	72
TAP	5	288	4
TAP	5	336	4
HLD	6	0	6	0
HLD	6	72	4	0
HLD	6	144	3	0
HLD	6	216	1	72
TAP	6	288	3
TAP	6	336	3
HLD	7	0	2	0
HLD	7	72	4	0
HLD	7	144	6	0
HLD	7	216	0	72
TAP	7	288	7
TAP	7	336	7
TAP	8	0	3
STR	8	0	6
SCL	8	0	6	96	48	3
STR	8	96	1
SI_	8	96	1	96	48	5
TAP	8	144	1
TAP	8	192	7
TAP	8	240	7
TAP	8	288	0
TAP	8	288	6
TAP	8	312	0
TAP	8	312	6
BRK	9	0	5
TAP	9	24	4
TAP	9	48	6
TAP	9	72	4
TAP	9	96	5
TAP	9	144	0
TAP	9	168	7
TAP	9	216	2
TAP	9	240	3
TAP	9	264	1
TAP	9	288	5
TAP	9	312	4
HLD	9	336	6	48
HLD	10	0	5	72
HLD	10	72	4	72
HLD	10	144	3	72
TAP	10	216	2
TAP	10	288	2
TAP	10	288	3
TAP	10	336	1
TAP	10	336	4
TAP	11	0	0
HLD	11	0	5	72
TAP	11	72	4
TAP	11	96	5
TAP	11	144	3
TAP	11	144	6
HLD	11	192	2	72
TAP	11	192	7
TAP	11	264	3
TAP	11	288	2
TAP	11	336	1
TAP	11	336	4
STR	12	0	0
SI_	12	0	0	96	48	4
HLD	12	0	5	96
TAP	12	192	6
TAP	12	216	7
TAP	12	240	6
TAP	12	264	7
TAP	12	288	5
TAP	12	312	4
TAP	12	336	5
TAP	12	360	4
HLD	13	0	6	96
TAP	13	96	7
TAP	13	144	0
TAP	13	168	1
STR	13	192	2
SCR	13	192	2	96	48	5
TAP	13	264	5
TAP	13	336	6
STR	14	0	6
SI_	14	0	6	96	48	4
STR	14	0	7
SI_	14	0	7	96	48	3
TAP	14	96	6
TAP	14	96	7
TAP	14	192	0
TAP	14	192	1
TAP	14	240	1
TAP	14	264	0
TAP	14	288	2
TAP	14	312	7
TAP	14	336	3
TAP	14	360	6
BRK	15	0	4
BRK	15	0	5
TAP	15	96	3
TAP	15	96	4
TAP	15	144	2
TAP	15	168	3
TAP	15	192	1
TAP	15	240	7
TAP	15	264	0
TAP	15	312	5
TAP	15	336	4
TAP	16	0	1
TAP	16	0	6
TAP	16	96	3
TAP	16	144	3
TAP	16	192	2
TAP	16	192	4
TAP	16	216	2
TAP	16	216	4
TAP	16	264	3
TAP	16	264	5
TAP	16	288	3
TAP	16	288	5
TAP	16	336	2
TAP	16	336	6
BRK	17	0	1
TAP	17	24	3
TAP	17	48	2
TAP	17	72	3
TAP	17	96	1
TAP	17	144	7
TAP	17	168	0
TAP	17	216	5
TAP	17	240	4
TAP	17	264	6
TAP	17	288	2
TAP	17	312	3
HLD	17	336	1	48
HLD	18	0	2	72
HLD	18	72	3	72
HLD	18	144	4	72
TAP	18	216	5
TAP	18	288	4
TAP	18	288	5
TAP	18	336	3
TAP	18	336	6
HLD	19	0	2	72
TAP	19	0	7
TAP	19	72	3
TAP	19	96	2
TAP	19	144	1
TAP	19	144	4
TAP	19	192	0
HLD	19	192	5	72
TAP	19	264	4
TAP	19	288	5
TAP	19	336	3
TAP	19	336	6
HLD	20	0	2	96
STR	20	0	7
SI_	20	0	7	96	48	3
TAP	20	192	1
TAP	20	216	0
TAP	20	240	1
TAP	20	264	0
TAP	20	288	2
TAP	20	312	3
TAP	20	336	2
TAP	20	360	3
HLD	21	0	1	96
TAP	21	96	0
TAP	21	144	7
TAP	21	168	6
STR	21	192	5
SCL	21	192	5	96	48	2
TAP	21	264	2
TAP	21	336	1
STR	22	0	0
SI_	22	0	0	96	48	4
STR	22	0	1
SI_	22	0	1	96	48	3
TAP	22	96	0
TAP	22	96	1
TAP	22	192	6
TAP	22	192	7
TAP	22	240	6
TAP	22	264	7
TAP	22	288	5
TAP	22	312	0
TAP	22	336	4
TAP	22	360	1
BRK	23	0	2
BRK	23	0	3
TAP	23	96	3
TAP	23	96	4
TAP	23	144	5
TAP	23	168	4
TAP	23	192	6
TAP	23	240	0
TAP	23	264	7
TAP	23	312	2
TAP	23	336	3
TAP	24	0	1
HLD	24	0	5	288
TAP	24	96	4
TAP	24	144	7
TAP	24	168	0
HLD	24	192	1	96
BRK	25	0	2
BRK	25	0	4
TAP	25	144	5
TAP	25	168	4
TAP	25	192	5
TAP	25	264	3
TAP	25	264	4
TAP	25	336	2
TAP	25	336	3
TAP	26	0	1
TAP	26	144	3
TAP	26	168	2
TAP	26	192	5
TAP	26	216	4
TAP	26	240	3
TAP	26	264	2
TAP	26	288	5
TAP	26	312	4
TAP	26	336	3
TAP	26	360	2
TAP	27	0	6
TAP	27	144	4
TAP	27	168	4
TAP	27	192	4
TAP	27	336	3
TAP	27	360	3
TAP	28	0	3
TAP	28	192	2
TAP	28	216	4
TAP	28	240	3
TAP	28	264	5
TAP	28	288	3
TAP	28	312	4
TAP	28	336	2
TAP	28	360	3
TAP	29	0	1
TAP	29	144	2
TAP	29	168	3
TAP	29	192	2
TAP	29	264	3
TAP	29	264	4
TAP	29	336	4
TAP	29	336	5
TAP	30	0	6
TAP	30	144	4
TAP	30	168	5
TAP	30	192	2
TAP	30	216	3
TAP	30	240	4
TAP	30	264	5
TAP	30	288	2
TAP	30	312	3
TAP	30	336	4
TAP	30	360	5
TAP	31	0	1
TAP	31	192	4
TAP	31	264	3
TAP	31	264	5
TAP	31	336	2
TAP	31	336	6
HLD	32	0	1	96
HLD	32	0	7	96
TAP	32	144	0
TAP	32	168	0
TAP	32	192	0
STR	32	240	7
SI_	32	240	7	96	48	3
STR	32	288	1
SI_	32	288	1	96	48	5
TAP	32	336	7
BRK	33	0	1
TAP	33	96	4
TAP	33	192	6
TAP	33	192	7
STR	33	240	0
SI_	33	240	0	96	48	4
STR	33	288	6
SI_	33	288	6	96	48	2
TAP	33	336	0
TAP	34	0	6
TAP	34	96	3
TAP	34	144	0
TAP	34	168	7
TAP	34	192	6
TAP	34	288	1
TAP	34	288	5
HLD	35	0	2	96
TAP	35	0	7
TAP	35	96	3
TAP	35	192	0
TAP	35	192	1
STR	35	240	7
SI_	35	240	7	96	48	3
STR	35	288	1
SI_	35	288	1	96	48	5
TAP	35	336	7
TAP	36	0	1
TAP	36	96	4
TAP	36	144	7
TAP	36	168	0
STR	36	192	1
SI_	36	192	1	96	48	5
STR	36	192	3
SI_	36	192	3	96	48	7
TAP	37	0	4
HLD	37	0	6	96
TAP	37	96	7
TAP	37	192	4
TAP	37	192	5
STR	37	240	3
SI_	37	240	3	96	48	7
STR	37	288	5
SI_	37	288	5	96	48	1
TAP	37	336	3
TAP	38	0	5
TAP	38	96	0
TAP	38	144	6
TAP	38	168	4
TAP	38	192	5
TAP	38	240	3
TAP	38	240	4
TAP	38	288	2
TAP	38	288	3
TAP	38	336	1
HLD	39	0	0	96
HLD	39	0	4	240
TAP	39	144	7
TAP	39	168	7
TAP	39	192	7
TAP	39	240	0
TAP	39	288	1
TAP	39	288	3
TAP	39	336	2
TAP	40	0	3
TAP	40	0	5
TAP	40	24	3
TAP	40	24	5
TAP	40	72	7
TAP	40	96	0
TAP	40	120	7
TAP	40	168	2
TAP	40	168	4
TAP	40	192	2
TAP	40	192	4
TAP	40	240	0
TAP	40	264	7
BRK	40	288	1
BRK	40	288	6
BRK	41	0	2
TAP	41	48	1
TAP	41	48	3
TAP	41	96	5
TAP	41	120	4
TAP	41	168	3
TAP	41	168	6
TAP	41	216	7
TAP	41	240	0
TAP	41	288	1
TAP	41	288	7
TAP	41	336	2
TAP	42	0	5
TAP	42	48	4
TAP	42	48	6
TAP	42	96	2
TAP	42	120	3
TAP	42	168	1
TAP	42	168	4
TAP	42	216	0
TAP	42	240	7
TAP	42	288	0
TAP	42	288	6
TAP	42	336	2
TAP	42	360	3
TAP	43	0	2
TAP	43	48	1
TAP	43	48	5
TAP	43	96	2
TAP	43	96	6
TAP	43	144	5
TAP	43	168	4
TAP	43	216	1
TAP	43	240	3
TAP	43	288	2
TAP	43	288	6
TAP	43	336	7
TAP	43	360	0
TAP	44	0	6
TAP	44	48	1
TAP	44	48	5
TAP	44	96	2
TAP	44	96	6
TAP	44	144	5
TAP	44	168	4
TAP	44	216	2
TAP	44	240	3
TAP	44	288	1
TAP	44	288	6
TAP	45	0	5
TAP	45	48	6
TAP	45	48	7
TAP	45	96	0
TAP	45	96	7
TAP	45	144	1
TAP	45	168	1
TAP	45	216	5
TAP	45	240	4
TAP	45	288	3
TAP	45	288	6
TAP	45	336	2
TAP	45	360	3
TAP	46	0	1
TAP	46	48	0
TAP	46	48	1
TAP	46	96	0
TAP	46	96	7
TAP	46	144	6
TAP	46	168	6
TAP	46	216	2
TAP	46	240	3
TAP	46	288	1
TAP	46	288	4
TAP	46	336	5
TAP	46	360	4
TAP	47	0	6
TAP	47	48	0
TAP	47	96	1
TAP	47	96	7
TAP	47	144	5
TAP	47	168	4
TAP	47	216	2
TAP	47	240	3
TAP	47	288	1
TAP	47	288	3
TAP	47	336	0
TAP	47	336	4
HLD	48	0	0	192
HLD	48	0	4	96
TAP	48	144	3
TAP	48	168	3
TAP	48	192	3
TAP	48	240	1
TAP	48	288	2
TAP	48	288	6
TAP	48	336	3
TAP	48	336	5
BST	49	0	4
SCL	49	0	4	96	1056	4
TAP	50	0	4
TAP	50	192	3
TAP	51	0	2
TAP	51	192	1
TAP	52	0	0
TAP	52	192	7
STR	53	0	6
SLL	53	0	6	96	192	2
STR	53	96	4
SI_	53	96	4	96	96	2
STR	53	192	2
SI_	53	192	2	96	96	6
TAP	53	288	6
STR	54	0	2
SLR	54	0	2	96	192	6
STR	54	96	4
SI_	54	96	4	96	96	6
STR	54	192	6
SI_	54	192	6	96	96	2
TAP	54	288	2
STR	55	0	4
SLL	55	0	4	96	192	6
TAP	55	96	2
STR	55	192	6
SLL	55	192	6	96	192	0
TAP	55	288	4
STR	56	0	0
SLL	56	0	0	96	192	4
SLR	56	0	0	96	192	4
BRK	57	0	1
BRK	57	0	7
TAP	57	240	5
STR	57	288	4
SCL	57	288	4	96	96	1
TAP	57	336	0
STR	58	0	1
SCL	58	0	1	96	96	6
TAP	58	144	2
TAP	58	168	3
TAP	58	192	4
TAP	59	0	0
TAP	59	0	6
TAP	59	240	2
STR	59	288	3
SCR	59	288	3	96	96	6
TAP	59	336	7
STR	60	0	6
SCR	60	0	6	96	96	1
TAP	60	144	5
TAP	60	168	4
TAP	60	192	3
TAP	61	0	3
TAP	61	0	4
TAP	61	240	3
TAP	61	288	4
TAP	61	336	2
TAP	61	336	5
HLD	62	0	1	96
HLD	62	0	6	96
TAP	62	144	0
TAP	62	144	7
TAP	62	168	1
TAP	62	168	6
BRK	62	192	2
BRK	62	192	5
BRK	62	264	6
BRK	62	264	7
BRK	62	336	3
BRK	62	336	4
BRK	63	0	0
BRK	63	0	1
TAP	63	96	2
TAP	63	96	5
TAP	63	144	7
TAP	63	168	0
TAP	63	192	7
TAP	63	240	4
TAP	63	240	6
STR	63	288	3
SCL	63	288	3	96	144	4
TAP	63	288	5
TAP	63	336	2
TAP	63	336	4
BRK	64	0	1
BRK	64	0	3
BST	64	192	3
SI_	64	192	3	96	48	7
BRK	64	288	2
BRK	64	288	3
BST	65	0	1
SI_	65	0	1	96	24	4
TAP	65	24	0
TAP	65	48	2
TAP	65	72	7
TAP	65	96	1
STR	65	144	6
SI_	65	144	6	96	24	3
TAP	65	168	7
TAP	65	192	5
TAP	65	216	0
TAP	65	240	6
TAP	65	288	2
TAP	65	336	0
TAP	65	336	1
STR	66	0	6
SI_	66	0	6	96	24	3
TAP	66	24	7
TAP	66	48	5
TAP	66	72	0
TAP	66	96	6
STR	66	144	1
SI_	66	144	1	96	24	4
TAP	66	168	0
TAP	66	192	2
TAP	66	216	7
TAP	66	240	1
TAP	66	288	5
TAP	66	336	6
TAP	66	336	7
STR	67	0	2
SI_	67	0	2	96	24	7
TAP	67	24	3
TAP	67	48	1
TAP	67	72	4
TAP	67	96	2
STR	67	144	5
SI_	67	144	5	96	24	0
TAP	67	168	4
TAP	67	192	6
TAP	67	216	3
TAP	67	240	5
TAP	67	288	2
TAP	67	312	7
TAP	67	336	2
TAP	67	360	7
TAP	68	0	1
TAP	68	24	3
TAP	68	48	0
TAP	68	72	7
TAP	68	96	4
TAP	68	120	6
TAP	68	144	3
TAP	68	168	4
TAP	68	192	1
TAP	68	216	3
TAP	68	240	0
TAP	68	264	7
BRK	68	288	2
BRK	68	288	6
STR	69	0	1
SI_	69	0	1	96	24	5
TAP	69	24	0
TAP	69	48	2
TAP	69	72	7
TAP	69	96	1
STR	69	144	6
SI_	69	144	6	96	24	2
TAP	69	168	7
TAP	69	192	5
TAP	69	216	0
TAP	69	240	6
TAP	69	288	1
TAP	69	312	0
TAP	69	336	2
TAP	69	360	7
STR	70	0	2
SI_	70	0	2	96	24	6
TAP	70	24	3
TAP	70	48	1
TAP	70	72	4
TAP	70	96	2
STR	70	144	5
SI_	70	144	5	96	24	1
TAP	70	168	4
TAP	70	192	6
TAP	70	216	3
TAP	70	240	5
TAP	70	288	2
TAP	70	312	3
TAP	70	336	1
TAP	70	360	4
TAP	71	0	0
TAP	71	24	6
TAP	71	48	2
TAP	71	72	7
TAP	71	96	1
TAP	71	120	4
TAP	71	144	3
TAP	71	168	5
TAP	71	192	1
TAP	71	216	7
TAP	71	240	0
TAP	71	264	4
TAP	71	288	3
TAP	71	312	7
TAP	71	336	1
TAP	71	360	5
TAP	72	0	0
TAP	72	24	4
TAP	72	48	1
TAP	72	72	5
TAP	72	96	2
TAP	72	120	6
TAP	72	144	3
TAP	72	168	7
TAP	72	192	0
TAP	72	192	4
TAP	72	240	2
TAP	72	240	6
STR	72	288	0
SXR	72	288	0	96	1536	4
STR	72	288	4
SXR	72	288	4	96	1536	0
TAP	72	300	1
TAP	72	300	5
TAP	72	312	2
TAP	72	312	6
TAP	72	324	3
TAP	72	324	7
TAP	72	336	0
TAP	72	336	4
BRK	73	0	0
BRK	73	0	4

T_REC_TAP	527
T_REC_BRK	30
T_REC_XTP	0
T_REC_HLD	44
T_REC_XHO	0
T_REC_STR	45
T_REC_BST	3
T_REC_XST	0
T_REC_TTP	0
T_REC_THO	0
T_REC_SLD	49
T_REC_ALL	698
T_NUM_TAP	572
T_NUM_BRK	33
T_NUM_HLD	44
T_NUM_SLD	49
T_NUM_ALL	698
T_JUDGE_TAP	605
T_JUDGE_HLD	86
T_JUDGE_SLD	49
T_JUDGE_ALL	740
TTM_EACHPAIRS	110
TTM_SCR_TAP	286000
TTM_SCR_BRK	85800
TTM_SCR_HLD	44000
TTM_SCR_SLD	73500
TTM_SCR_ALL	489300
TTM_SCR_S	471450
TTM_SCR_SS	486000
TTM_RAT_ACV	10067

