VERSION	0.00.00	1.03.00
FES_MODE	0
BPM_DEF	154.000	154.000	154.000	154.000
MET_DEF	4	4
RESOLUTION	384
CLK_DEF	384
COMPATIBLE_CODE	MA2

BPM	0	0	154.000
MET	0	0	4	4

TAP	1	0	2
TAP	1	72	0
TAP	1	144	6
TAP	1	192	6
TAP	1	264	0
TAP	1	336	2
TAP	2	0	2
TAP	2	72	4
TAP	2	144	6
STR	2	192	6
SI_	2	192	6	96	48	2
STR	2	240	4
SI_	2	240	4	96	48	0
TAP	3	0	7
TAP	3	72	5
TAP	3	144	3
TAP	3	192	3
TAP	3	264	5
TAP	3	336	7
TAP	4	0	7
TAP	4	72	1
TAP	4	144	3
STR	4	192	3
SI_	4	192	3	96	48	7
STR	4	240	1
SI_	4	240	1	96	48	5
HLD	5	0	6	144
TAP	5	72	4
TAP	5	144	0
HLD	5	192	0	144
TAP	5	264	2
TAP	5	336	6
HLD	6	0	6	72
HLD	6	72	0	72
TAP	6	144	7
STR	6	192	0
SI_	6	192	0	96	48	4
STR	6	240	6
SI_	6	240	6	96	48	2
TAP	7	0	1
TAP	7	72	7
TAP	7	144	4
TAP	7	144	5
TAP	7	192	3
TAP	7	264	1
TAP	7	336	6
TAP	7	336	7
HLD	8	0	0	192
TAP	8	144	2
TAP	8	168	3
TAP	8	192	4
TAP	8	240	4
TAP	8	288	1
BRK	8	312	0
TAP	9	0	0
TAP	9	48	5
TAP	9	96	2
TAP	9	144	6
TAP	9	168	7
TAP	9	216	3
TAP	9	240	2
TAP	9	288	7
TAP	10	0	2
TAP	10	48	7
TAP	10	96	4
TAP	10	144	0
TAP	10	168	1
TAP	10	216	5
TAP	10	240	4
TAP	10	288	1
TAP	11	0	4
TAP	11	48	1
TAP	11	96	6
TAP	11	144	2
TAP	11	168	3
TAP	11	216	7
TAP	11	240	6
TAP	11	288	3
TAP	12	0	7
TAP	12	48	2
TAP	12	96	5
TAP	12	144	1
TAP	12	168	0
TAP	12	216	4
TAP	12	240	5
TAP	12	288	0
TAP	12	336	0
TAP	12	336	7
HLD	13	0	0	96
TAP	13	48	2
TAP	13	96	4
TAP	13	144	6
TAP	13	168	6
TAP	13	216	0
TAP	13	240	0
TAP	13	288	0
TAP	13	288	7
HLD	14	0	7	96
TAP	14	48	5
TAP	14	96	3
TAP	14	144	1
TAP	14	168	1
TAP	14	216	7
TAP	14	240	7
TAP	14	288	0
TAP	14	288	7
STR	15	0	0
SI_	15	0	0	96	48	4
TAP	15	48	0
TAP	15	144	5
TAP	15	168	5
TAP	15	216	2
TAP	15	240	3
TAP	15	288	2
TAP	15	288	5
STR	16	0	7
SI_	16	0	7	96	48	3
TAP	16	48	7
TAP	16	144	2
TAP	16	168	2
TAP	16	216	5
TAP	16	240	4
TAP	16	288	1
TAP	16	312	0
TAP	16	336	1
TAP	17	0	6
TAP	17	24	7
TAP	17	72	3
TAP	17	96	2
TAP	17	144	5
TAP	17	168	4
TAP	17	216	0
TAP	17	240	1
TAP	17	288	0
TAP	17	288	7
TAP	18	0	2
TAP	18	24	3
TAP	18	72	5
TAP	18	96	4
TAP	18	144	2
TAP	18	168	3
TAP	18	216	5
TAP	18	240	4
TAP	18	288	0
TAP	18	288	7
TAP	19	0	1
TAP	19	24	0
TAP	19	72	3
TAP	19	96	4
TAP	19	144	7
TAP	19	168	6
TAP	19	216	0
TAP	19	240	7
TAP	19	288	1
TAP	19	288	6
TAP	20	0	6
TAP	20	24	7
TAP	20	72	4
TAP	20	96	3
TAP	20	144	0
TAP	20	168	1
TAP	20	216	7
TAP	20	240	0
TAP	20	288	1
TAP	20	288	6
TAP	20	336	0
TAP	20	336	7
TAP	21	0	0
TAP	21	24	2
TAP	21	72	2
TAP	21	96	4
TAP	21	144	4
TAP	21	168	6
TAP	21	216	6
TAP	21	240	0
TAP	21	288	0
TAP	21	288	6
TAP	22	0	7
TAP	22	24	5
TAP	22	72	5
TAP	22	96	3
TAP	22	144	3
TAP	22	168	1
TAP	22	216	1
TAP	22	240	7
TAP	22	288	1
TAP	22	288	7
TAP	23	0	0
TAP	23	24	2
TAP	23	72	0
TAP	23	96	6
TAP	23	144	6
TAP	23	168	4
TAP	23	216	4
TAP	23	240	2
TAP	23	288	7
TAP	23	312	0
TAP	23	336	1
HLD	24	0	6	288
TAP	24	144	1
TAP	24	168	0
HLD	24	192	7	96
STR	25	0	0
SI_	25	0	0	96	192	5
HLD	25	0	3	1440
STR	26	0	5
SI_	26	0	5	96	192	2
STR	27	0	2
SI_	27	0	2	96	192	7
STR	28	0	7
SI_	28	0	7	96	192	4
HLD	29	0	4	1440
STR	29	0	6
SI_	29	0	6	96	192	3
TAP	29	96	6
STR	30	0	3
SI_	30	0	3	96	192	0
TAP	30	96	3
STR	31	0	0
SI_	31	0	0	96	192	5
TAP	31	96	0
STR	32	0	5
SCR	32	0	5	96	192	0
TAP	32	96	5
STR	33	0	0
SI_	33	0	0	96	48	4
STR	33	96	7
SI_	33	96	7	96	48	3
STR	33	192	6
SI_	33	192	6	96	48	2
STR	34	0	5
SI_	34	0	5	96	48	1
STR	34	96	4
SI_	34	96	4	96	48	0
STR	34	192	3
SI_	34	192	3	96	48	7
STR	35	0	2
SI_	35	0	2	96	48	6
STR	35	96	1
SI_	35	96	1	96	48	5
STR	35	192	0
SI_	35	192	0	96	48	4
STR	36	0	0
SCL	36	0	0	96	96	5
STR	36	96	5
SCL	36	96	5	96	96	2
STR	36	192	2
SCL	36	192	2	96	48	7
STR	37	0	0
SI_	37	0	0	96	48	4
STR	37	96	6
SI_	37	96	6	96	48	2
STR	37	192	4
SI_	37	192	4	96	48	0
STR	38	0	7
SI_	38	0	7	96	48	3
STR	38	96	1
SI_	38	96	1	96	48	5
STR	38	192	3
SI_	38	192	3	96	48	7
STR	39	0	7
SCR	39	0	7	96	96	2
STR	39	96	2
SCR	39	96	2	96	96	5
STR	39	192	5
SI_	39	192	5	96	48	0
BRK	40	0	6
BRK	40	0	7
BRK	40	96	4
BRK	40	96	5
BRK	40	192	2
BRK	40	192	3
BRK	40	288	0
BRK	40	288	1
STR	41	0	0
SI_	41	0	0	96	48	3
STR	41	0	4
SI_	41	0	4	96	48	7
STR	41	192	3
SCL	41	192	3	96	48	0
STR	41	192	7
SCL	41	192	7	96	48	4
STR	42	0	0
SI_	42	0	0	96	48	5
STR	42	0	4
SI_	42	0	4	96	48	1
STR	42	192	1
SCR	42	192	1	96	48	4
STR	42	192	5
SCR	42	192	5	96	48	0
STR	43	0	0
SI_	43	0	0	96	48	5
STR	43	0	4
SI_	43	0	4	96	48	1
STR	43	192	1
SI_	43	192	1	96	48	6
STR	43	192	5
SI_	43	192	5	96	48	2
TAP	44	0	2
TAP	44	0	3
TAP	44	96	6
TAP	44	96	7
STR	44	192	4
SI_	44	192	4	96	48	1
STR	44	192	5
SI_	44	192	5	96	48	0
STR	45	0	6
SI_	45	0	6	96	96	1
STR	45	96	1
SI_	45	96	1	96	96	5
STR	45	192	5
SI_	45	192	5	96	96	2
STR	45	288	2
SI_	45	288	2	96	96	7
STR	46	0	7
SI_	46	0	7	96	96	4
STR	46	96	4
SI_	46	96	4	96	96	0
STR	46	192	0
SI_	46	192	0	96	96	3
STR	46	288	3
SCR	46	288	3	96	96	6
STR	47	0	6
SCR	47	0	6	96	96	1
STR	47	96	1
SCR	47	96	1	96	96	4
STR	47	192	4
SCR	47	192	4	96	96	7
STR	47	288	7
SI_	47	288	7	96	96	4
STR	48	0	4
SI_	48	0	4	96	96	1
STR	48	96	1
SI_	48	96	1	96	96	6
STR	48	192	6
SCL	48	192	6	96	96	3
HLD	49	0	0	384
TAP	49	96	2
TAP	49	192	2
TAP	49	288	6
HLD	50	0	6	384
TAP	50	96	4
TAP	50	192	4
TAP	50	288	1
HLD	51	0	1	192
TAP	51	96	2
HLD	51	192	2	192
TAP	51	288	3
HLD	52	0	3	288
STR	52	96	2
SCL	52	96	2	96	96	7
HLD	53	0	7	192
TAP	53	96	5
HLD	53	192	1	192
TAP	53	288	3
HLD	54	0	7	192
TAP	54	96	6
HLD	54	192	0	96
HLD	54	288	2	96
HLD	55	0	4	192
HLD	55	192	0	192
HLD	56	0	2	288
STR	56	96	0
SCL	56	96	0	96	96	5
TAP	57	0	0
TAP	57	0	4
STR	57	240	0
SI_	57	240	0	96	48	4
STR	57	288	6
SI_	57	288	6	96	48	2
TAP	57	336	0
TAP	58	0	6
TAP	58	192	1
TAP	58	192	5
TAP	59	0	2
TAP	59	0	6
STR	59	240	7
SI_	59	240	7	96	48	3
STR	59	288	1
SI_	59	288	1	96	48	5
TAP	59	336	7
TAP	60	0	1
TAP	60	144	0
TAP	60	168	7
TAP	60	192	6
TAP	61	0	3
TAP	61	0	7
TAP	61	240	2
TAP	61	240	6
TAP	61	288	1
TAP	61	288	5
TAP	61	336	0
TAP	61	336	4
TAP	62	0	3
TAP	62	0	7
TAP	62	144	0
TAP	62	144	4
TAP	62	168	1
TAP	62	168	5
TAP	62	192	2
TAP	62	192	6
TAP	62	264	6
TAP	62	264	7
TAP	62	336	3
TAP	62	336	4
BRK	63	0	0
BRK	63	0	1
TAP	63	144	0
TAP	63	144	7
TAP	63	168	1
TAP	63	168	6
TAP	63	192	2
TAP	63	192	5
TAP	63	240	3
TAP	63	240	4
TAP	63	288	2
TAP	63	288	5
TAP	63	336	1
TAP	63	336	6
TAP	64	0	0
TAP	64	0	7
STR	64	96	0
SI_	64	96	0	96	48	4
BRK	64	192	0
STR	64	192	3
SI_	64	192	3	96	48	7
BRK	64	288	3
TAP	65	0	2
TAP	65	24	3
TAP	65	48	2
TAP	65	72	3
TAP	65	96	1
TAP	65	144	6
TAP	65	168	7
TAP	65	192	6
TAP	65	216	7
TAP	65	240	5
TAP	65	288	0
TAP	65	288	4
TAP	65	336	2
TAP	65	336	6
TAP	66	0	5
TAP	66	24	4
TAP	66	48	5
TAP	66	72	4
TAP	66	96	6
TAP	66	144	1
TAP	66	168	0
TAP	66	192	1
TAP	66	216	0
TAP	66	240	2
TAP	66	288	3
TAP	66	288	7
TAP	66	336	1
TAP	66	336	5
TAP	67	0	0
TAP	67	24	7
TAP	67	48	1
TAP	67	72	6
TAP	67	96	7
TAP	67	144	4
TAP	67	168	3
TAP	67	192	5
TAP	67	216	2
TAP	67	240	3
TAP	67	288	0
TAP	67	288	1
TAP	67	336	2
TAP	67	336	7
TAP	68	0	4
TAP	68	24	5
TAP	68	48	3
TAP	68	72	6
TAP	68	96	3
TAP	68	120	4
TAP	68	144	2
TAP	68	168	5
TAP	68	192	2
TAP	68	216	3
TAP	68	240	1
TAP	68	264	4
BRK	68	288	0
TAP	69	0	2
TAP	69	24	3
TAP	69	48	1
TAP	69	72	3
TAP	69	96	2
TAP	69	144	6
TAP	69	168	7
STR	69	192	5
SCL	69	192	5	96	48	2
TAP	69	216	7
TAP	69	240	6
TAP	70	0	5
TAP	70	24	4
TAP	70	48	6
TAP	70	72	4
TAP	70	96	5
TAP	70	144	1
TAP	70	168	0
STR	70	192	2
SCR	70	192	2	96	48	5
TAP	70	216	0
TAP	70	240	1
TAP	71	0	1
TAP	71	24	7
TAP	71	48	0
TAP	71	72	6
TAP	71	96	1
TAP	71	144	4
TAP	71	168	2
TAP	71	192	5
TAP	71	216	3
TAP	71	240	5
TAP	71	288	2
TAP	71	288	5
TAP	71	312	1
TAP	71	312	6
TAP	71	336	0
TAP	71	336	7
BRK	72	0	0
TAP	72	48	2
TAP	72	96	4
TAP	72	144	6
BRK	72	192	0
TAP	72	216	1
TAP	72	240	2
TAP	72	264	3
STR	72	288	4
SI_	72	288	4	96	192	1
TAP	72	312	5
TAP	72	336	6
TAP	72	360	7
BRK	73	0	0

T_REC_TAP	339
T_REC_BRK	17
T_REC_XTP	0
T_REC_HLD	24
T_REC_XHO	0
T_REC_STR	77
T_REC_BST	0
T_REC_XST	0
T_REC_TTP	0
T_REC_THO	0
T_REC_SLD	77
T_REC_ALL	534
T_NUM_TAP	416
T_NUM_BRK	17
T_NUM_HLD	24
T_NUM_SLD	77
T_NUM_ALL	534
T_JUDGE_TAP	433
T_JUDGE_HLD	146
T_JUDGE_SLD	77
T_JUDGE_ALL	656
TTM_EACHPAIRS	59
TTM_SCR_TAP	208000
TTM_SCR_BRK	44200
TTM_SCR_HLD	24000
TTM_SCR_SLD	115500
TTM_SCR_ALL	391700
TTM_SCR_S	378300
TTM_SCR_SS	390000
TTM_RAT_ACV	10043

