VERSION	0.00.00	1.03.00
FES_MODE	0
BPM_DEF	154.000	154.000	154.000	154.000
MET_DEF	4	4
RESOLUTION	384
CLK_DEF	384
COMPATIBLE_CODE	MA2

BPM	0	0	154.000
MET	0	0	4	4

HLD	1	0	6	384
HLD	2	0	0	384
HLD	3	0	2	384
HLD	4	0	4	336
TAP	4	336	7
HLD	5	0	7	336
TAP	5	336	5
HLD	6	0	5	336
TAP	6	336	3
HLD	7	0	3	336
TAP	7	336	1
HLD	8	0	1	192
STR	8	192	3
SI_	8	192	3	96	48	7
TAP	9	0	0
TAP	9	48	1
HLD	9	96	2	96
HLD	9	192	1	96
TAP	9	288	3
TAP	10	0	7
TAP	10	48	6
HLD	10	96	5	96
HLD	10	192	6	96
TAP	10	288	4
TAP	11	0	0
TAP	11	48	1
HLD	11	96	2	96
HLD	11	192	1	96
TAP	11	288	3
TAP	12	0	7
TAP	12	48	6
HLD	12	96	5	96
STR	12	192	6
SI_	12	192	6	96	48	2
TAP	13	0	0
TAP	13	48	1
STR	13	96	2
SI_	13	96	2	96	48	7
STR	13	192	0
SI_	13	192	0	96	48	5
TAP	14	0	7
TAP	14	48	6
STR	14	96	5
SI_	14	96	5	96	48	0
STR	14	192	7
SI_	14	192	7	96	48	2
TAP	15	0	1
TAP	15	48	2
STR	15	96	3
SI_	15	96	3	96	48	7
STR	15	192	0
SI_	15	192	0	96	48	4
TAP	16	0	6
TAP	16	48	5
STR	16	96	4
SI_	16	96	4	96	48	0
STR	16	192	7
SI_	16	192	7	96	48	3
TAP	17	0	0
TAP	17	48	7
HLD	17	96	6	96
STR	17	192	5
SI_	17	192	5	96	48	0
TAP	17	240	5
TAP	18	0	7
TAP	18	48	0
HLD	18	96	1	96
STR	18	192	2
SI_	18	192	2	96	48	7
TAP	18	240	2
TAP	19	0	3
TAP	19	48	4
HLD	19	96	5	96
STR	19	192	6
SI_	19	192	6	96	48	3
TAP	19	240	6
TAP	20	0	4
TAP	20	48	3
HLD	20	96	2	96
STR	20	192	1
SI_	20	192	1	96	48	4
TAP	20	240	1
TAP	21	0	7
TAP	21	48	6
HLD	21	96	5	96
STR	21	192	4
SI_	21	192	4	96	48	0
TAP	21	240	4
TAP	22	0	0
TAP	22	48	1
HLD	22	96	2	96
STR	22	192	3
SI_	22	192	3	96	48	7
TAP	22	240	3
TAP	23	0	7
TAP	23	48	6
HLD	23	96	5	96
STR	23	192	4
SI_	23	192	4	96	48	0
TAP	23	240	4
HLD	24	0	7	144
TAP	24	144	6
TAP	24	168	7
BRK	24	192	6
HLD	25	0	6	72
HLD	25	72	5	72
HLD	25	144	4	72
HLD	25	216	3	72
TAP	25	288	2
HLD	26	0	1	72
HLD	26	72	2	72
HLD	26	144	3	72
HLD	26	216	4	72
TAP	26	288	5
HLD	27	0	6	72
HLD	27	72	5	72
HLD	27	144	7	72
STR	27	216	4
SI_	27	216	4	96	48	0
HLD	28	0	1	72
HLD	28	72	2	72
HLD	28	144	0	72
STR	28	216	3
SI_	28	216	3	96	48	7
HLD	29	0	1	72
HLD	29	72	2	72
HLD	29	144	3	72
HLD	29	216	4	72
TAP	29	288	0
TAP	29	336	0
HLD	30	0	0	72
HLD	30	72	7	72
HLD	30	144	6	72
HLD	30	216	5	72
TAP	30	288	7
TAP	30	336	7
HLD	31	0	7	72
HLD	31	72	0	72
HLD	31	144	1	72
HLD	31	216	2	72
TAP	31	288	0
TAP	31	336	0
STR	32	0	7
SI_	32	0	7	96	48	3
STR	32	96	0
SI_	32	96	0	96	48	5
STR	32	192	7
SI_	32	192	7	96	48	2
TAP	33	0	0
TAP	33	48	7
HLD	33	96	6	72
HLD	33	168	5	72
TAP	33	240	4
TAP	33	288	5
TAP	34	0	7
TAP	34	48	0
HLD	34	96	1	72
HLD	34	168	2	72
TAP	34	240	3
TAP	34	288	2
TAP	35	0	3
TAP	35	48	4
HLD	35	96	5	72
HLD	35	168	6	72
TAP	35	240	7
TAP	35	288	6
TAP	36	0	4
TAP	36	48	3
HLD	36	96	2	72
HLD	36	168	1	72
TAP	36	240	0
TAP	36	288	1
STR	37	0	0
SI_	37	0	0	96	48	5
TAP	37	48	0
HLD	37	168	6	72
TAP	37	240	5
TAP	37	288	4
TAP	37	336	3
STR	38	0	7
SI_	38	0	7	96	48	2
TAP	38	48	7
HLD	38	168	1	72
TAP	38	240	2
TAP	38	288	3
TAP	38	336	4
STR	39	0	6
SI_	39	0	6	96	48	2
TAP	39	48	6
HLD	39	168	0	72
TAP	39	240	7
TAP	39	288	0
TAP	39	336	1
STR	40	0	1
SI_	40	0	1	96	48	5
TAP	40	48	1
HLD	40	168	7	72
TAP	40	240	0
TAP	40	288	7
TAP	40	336	6
TAP	41	0	6
TAP	41	48	7
TAP	41	96	0
TAP	41	144	1
HLD	41	168	1	72
STR	41	240	2
SI_	41	240	2	96	48	7
TAP	41	288	2
TAP	42	0	1
TAP	42	48	0
TAP	42	96	7
TAP	42	144	6
HLD	42	168	6	72
STR	42	240	5
SI_	42	240	5	96	48	0
TAP	42	288	5
TAP	43	0	2
TAP	43	48	3
TAP	43	96	4
TAP	43	144	5
HLD	43	168	5	72
STR	43	240	6
SI_	43	240	6	96	48	3
TAP	43	288	6
TAP	44	0	5
TAP	44	48	4
TAP	44	96	3
TAP	44	144	2
HLD	44	168	2	72
STR	44	240	1
SI_	44	240	1	96	48	4
TAP	44	288	1
TAP	45	0	7
TAP	45	48	0
TAP	45	96	1
TAP	45	144	1
HLD	45	168	2	72
TAP	45	240	3
TAP	45	288	4
TAP	45	336	5
TAP	46	0	6
TAP	46	48	5
TAP	46	96	4
TAP	46	144	4
HLD	46	168	3	72
TAP	46	240	2
TAP	46	288	1
TAP	46	336	0
TAP	47	0	0
TAP	47	48	7
TAP	47	96	6
TAP	47	144	6
HLD	47	168	5	72
TAP	47	240	4
TAP	47	288	3
TAP	47	336	2
TAP	48	0	1
TAP	48	48	2
TAP	48	96	3
TAP	48	144	3
HLD	48	168	4	72
TAP	48	240	5
TAP	48	288	6
TAP	48	336	7
STR	49	0	0
SCL	49	0	0	96	192	5
STR	50	0	4
SCL	50	0	4	96	192	1
STR	51	0	7
SCR	51	0	7	96	96	2
STR	51	192	3
SCR	51	192	3	96	96	6
STR	52	0	0
SI_	52	0	0	96	96	4
HLD	52	192	5	96
HLD	52	288	6	96
STR	53	0	0
SCL	53	0	0	96	96	5
STR	53	192	4
SCL	53	192	4	96	96	1
STR	54	0	7
SI_	54	0	7	96	96	3
HLD	54	192	2	96
HLD	54	288	1	96
TAP	55	0	0
HLD	55	192	5	96
HLD	55	288	7	96
HLD	56	0	6	192
TAP	56	192	4
TAP	56	240	3
TAP	56	288	2
TAP	56	336	1
STR	57	0	0
SCR	57	0	0	96	96	3
TAP	57	240	4
TAP	57	288	5
TAP	57	336	6
HLD	58	0	7	144
TAP	58	144	6
TAP	58	168	7
STR	58	192	6
SCL	58	192	6	96	96	3
HLD	59	0	0	240
TAP	59	240	3
TAP	59	288	2
TAP	59	336	1
HLD	60	0	0	144
TAP	60	144	1
TAP	60	168	0
STR	60	192	1
SCR	60	192	1	96	96	4
HLD	61	0	7	240
TAP	61	240	4
TAP	61	288	5
TAP	61	336	6
HLD	62	0	7	144
TAP	62	144	0
BRK	62	192	0
BRK	62	192	4
BRK	62	264	1
BRK	62	264	5
BRK	62	336	2
BRK	62	336	6
HLD	63	0	3	144
TAP	63	0	7
TAP	63	144	2
TAP	63	168	3
TAP	63	192	2
TAP	63	240	1
STR	63	288	0
SCL	63	288	0	96	96	5
TAP	63	336	0
TAP	64	144	2
TAP	64	168	3
STR	64	192	2
SI_	64	192	2	96	48	6
TAP	65	0	7
TAP	65	48	6
TAP	65	96	5
TAP	65	144	5
TAP	65	168	4
TAP	65	216	4
TAP	65	240	3
TAP	65	288	3
BRK	65	336	2
TAP	66	0	1
TAP	66	48	0
TAP	66	96	7
TAP	66	144	7
TAP	66	168	0
TAP	66	216	0
TAP	66	240	1
TAP	66	288	1
BRK	66	336	2
TAP	67	0	3
TAP	67	48	4
TAP	67	96	5
TAP	67	144	5
TAP	67	168	4
TAP	67	216	4
TAP	67	240	3
TAP	67	288	3
BRK	67	336	2
TAP	68	0	1
TAP	68	48	0
TAP	68	96	7
TAP	68	144	7
TAP	68	168	6
TAP	68	216	6
TAP	68	240	5
TAP	68	288	5
BRK	68	336	4
TAP	69	0	3
TAP	69	48	2
TAP	69	96	1
TAP	69	144	1
TAP	69	168	0
TAP	69	216	0
TAP	69	240	1
TAP	69	288	1
BRK	69	336	2
TAP	70	0	3
TAP	70	48	4
TAP	70	96	5
TAP	70	144	5
TAP	70	168	6
TAP	70	216	6
TAP	70	240	7
TAP	70	288	7
BRK	70	336	0
TAP	71	0	1
TAP	71	48	0
TAP	71	96	7
TAP	71	144	7
TAP	71	168	6
TAP	71	216	6
TAP	71	240	7
TAP	71	288	7
BRK	71	336	0
TAP	72	0	1
TAP	72	48	2
TAP	72	96	3
TAP	72	144	3
TAP	72	168	4
TAP	72	216	4
TAP	72	240	5
TAP	72	288	5
BRK	72	336	6
STR	73	0	7
SI_	73	0	7	96	288	3

T_REC_TAP	225
T_REC_BRK	15
T_REC_XTP	0
T_REC_HLD	82
T_REC_XHO	0
T_REC_STR	44
T_REC_BST	0
T_REC_XST	0
T_REC_TTP	0
T_REC_THO	0
T_REC_SLD	44
T_REC_ALL	410
T_NUM_TAP	269
T_NUM_BRK	15
T_NUM_HLD	82
T_NUM_SLD	44
T_NUM_ALL	410
T_JUDGE_TAP	284
T_JUDGE_HLD	217
T_JUDGE_SLD	44
T_JUDGE_ALL	545
TTM_EACHPAIRS	4
TTM_SCR_TAP	134500
TTM_SCR_BRK	39000
TTM_SCR_HLD	82000
TTM_SCR_SLD	66000
TTM_SCR_ALL	321500
TTM_SCR_S	310400
TTM_SCR_SS	320000
TTM_RAT_ACV	10046

