VERSION	0.00.00	1.03.00
FES_MODE	0
BPM_DEF	154.000	154.000	154.000	154.000
MET_DEF	4	4
RESOLUTION	384
CLK_DEF	384
COMPATIBLE_CODE	MA2

BPM	0	0	154.000
MET	0	0	4	4

TAP	1	0	0
TAP	2	0	0
TAP	3	0	4
TAP	4	0	4
STR	5	0	1
SI_	5	0	1	96	144	5
STR	6	0	7
SI_	6	0	7	96	144	3
TAP	7	0	3
TAP	7	192	7
TAP	8	0	0
TAP	8	0	4
TAP	8	96	2
TAP	8	96	6
TAP	8	192	2
TAP	8	192	6
BRK	8	288	0
BRK	8	288	4
TAP	9	0	3
TAP	9	96	3
TAP	9	192	3
TAP	10	0	7
TAP	10	96	7
TAP	10	192	7
TAP	11	0	2
TAP	11	96	2
TAP	11	192	2
TAP	12	0	6
TAP	12	96	6
TAP	12	192	6
TAP	12	288	1
TAP	12	288	5
TAP	13	0	0
TAP	13	96	0
TAP	13	192	0
TAP	14	0	4
TAP	14	96	4
TAP	14	192	4
TAP	15	0	7
TAP	15	96	7
TAP	15	192	7
TAP	16	0	3
TAP	16	96	3
TAP	16	192	3
TAP	16	288	2
TAP	16	288	6
HLD	17	0	0	144
HLD	18	0	4	144
HLD	19	0	1	144
HLD	20	0	5	144
TAP	20	288	5
HLD	21	0	2	144
TAP	21	144	4
HLD	22	0	2	144
TAP	22	144	0
HLD	23	0	2	144
TAP	23	144	6
HLD	24	0	6	144
TAP	24	144	0
BRK	24	288	7
HLD	25	0	0	288
HLD	26	0	2	288
HLD	27	0	4	288
HLD	28	0	6	288
STR	29	0	0
SI_	29	0	0	96	144	5
STR	30	0	6
SI_	30	0	6	96	144	2
STR	31	0	5
SI_	31	0	5	96	144	2
STR	32	0	1
SI_	32	0	1	96	144	6
TAP	33	0	2
TAP	33	96	3
TAP	33	192	1
TAP	33	288	3
TAP	34	0	0
TAP	34	96	3
TAP	34	192	7
TAP	34	288	3
TAP	35	0	7
TAP	35	96	4
TAP	35	192	7
TAP	35	288	5
HLD	36	0	7	192
TAP	36	192	6
TAP	37	0	5
TAP	37	96	4
TAP	37	192	6
TAP	37	288	4
TAP	38	0	7
TAP	38	96	4
TAP	38	192	0
TAP	38	288	4
TAP	39	0	0
TAP	39	96	3
TAP	39	192	0
TAP	39	288	2
TAP	40	0	0
TAP	40	0	1
TAP	41	0	1
TAP	41	96	1
TAP	41	192	1
TAP	41	288	1
TAP	42	0	3
TAP	42	96	3
TAP	42	192	3
TAP	42	288	3
TAP	43	0	5
TAP	43	96	5
TAP	43	192	6
TAP	43	288	6
STR	44	0	7
SI_	44	0	7	96	144	3
TAP	45	0	4
TAP	45	96	4
TAP	45	192	3
TAP	45	288	3
TAP	46	0	2
TAP	46	96	2
TAP	46	192	1
TAP	46	288	1
TAP	47	0	0
TAP	47	96	0
TAP	47	192	7
TAP	47	288	7
TAP	48	0	6
TAP	48	96	6
TAP	48	192	5
TAP	48	288	4
TAP	48	288	5
HLD	49	0	7	288
HLD	50	0	5	288
HLD	51	0	3	288
HLD	52	0	1	288
TAP	53	0	0
STR	53	0	7
SI_	53	0	7	96	144	3
STR	54	0	0
SI_	54	0	0	96	144	4
TAP	54	0	7
HLD	55	0	1	288
HLD	55	192	6	96
BRK	56	0	0
BRK	56	0	7
HLD	57	0	0	192
TAP	57	192	2
TAP	57	288	3
TAP	58	0	4
TAP	58	192	5
HLD	59	0	6	192
TAP	59	192	7
TAP	59	288	0
TAP	60	0	1
TAP	60	192	0
TAP	60	192	7
HLD	61	0	2	192
TAP	61	192	0
TAP	61	288	6
TAP	62	0	4
TAP	62	192	2
TAP	62	192	3
TAP	62	288	4
TAP	62	288	5
BRK	63	0	0
BRK	63	0	7
TAP	63	192	3
TAP	63	192	4
TAP	63	288	2
TAP	63	288	5
TAP	64	0	1
TAP	64	0	6
STR	64	192	0
SI_	64	192	0	96	72	3
STR	64	192	7
SI_	64	192	7	96	72	4
TAP	65	0	5
TAP	65	96	6
TAP	65	192	7
TAP	65	288	0
TAP	66	0	1
TAP	66	96	2
TAP	66	192	3
TAP	66	288	4
TAP	67	0	4
TAP	67	96	3
TAP	67	192	2
TAP	67	288	1
TAP	68	0	0
TAP	68	96	7
TAP	68	192	6
TAP	68	288	4
TAP	68	288	5
TAP	69	0	0
TAP	69	96	2
TAP	69	192	4
TAP	69	288	6
TAP	70	0	7
TAP	70	96	5
TAP	70	192	3
TAP	70	288	1
TAP	71	0	0
TAP	71	0	1
TAP	71	96	2
TAP	71	96	3
TAP	71	192	4
TAP	71	192	5
TAP	71	288	6
TAP	71	288	7
TAP	72	0	6
TAP	72	0	7
TAP	72	96	0
TAP	72	96	5
TAP	72	192	0
TAP	72	192	1
TAP	72	288	2
TAP	72	288	7
BRK	73	0	0
BRK	73	0	7

T_REC_TAP	166
T_REC_BRK	9
T_REC_XTP	0
T_REC_HLD	22
T_REC_XHO	0
T_REC_STR	11
T_REC_BST	0
T_REC_XST	0
T_REC_TTP	0
T_REC_THO	0
T_REC_SLD	11
T_REC_ALL	219
T_NUM_TAP	177
T_NUM_BRK	9
T_NUM_HLD	22
T_NUM_SLD	11
T_NUM_ALL	219
T_JUDGE_TAP	186
T_JUDGE_HLD	96
T_JUDGE_SLD	11
T_JUDGE_ALL	293
TTM_EACHPAIRS	29
TTM_SCR_TAP	88500
TTM_SCR_BRK	23400
TTM_SCR_HLD	22000
TTM_SCR_SLD	16500
TTM_SCR_ALL	150400
TTM_SCR_S	145050
TTM_SCR_SS	149500
TTM_RAT_ACV	10060

