VERSION	0.00.00	1.03.00
FES_MODE	0
BPM_DEF	154.000	154.000	154.000	154.000
MET_DEF	4	4
RESOLUTION	384
CLK_DEF	384
COMPATIBLE_CODE	MA2

BPM	0	0	154.000
MET	0	0	4	4

TAP	5	0	5
TAP	6	0	4
TAP	7	0	3
STR	8	0	3
SI_	8	0	3	96	120	0
TAP	9	0	7
TAP	9	192	6
TAP	10	0	5
TAP	10	192	4
HLD	11	0	4	288
HLD	12	0	6	288
TAP	13	0	0
TAP	13	192	1
TAP	14	0	2
TAP	14	192	3
TAP	15	0	3
TAP	15	192	1
HLD	16	0	0	288
TAP	17	0	2
TAP	17	192	3
TAP	18	0	4
TAP	18	192	5
HLD	19	0	5	288
HLD	20	0	3	288
TAP	21	0	1
TAP	21	192	0
TAP	22	0	7
TAP	22	192	6
TAP	23	0	5
TAP	23	192	0
TAP	24	0	0
TAP	25	96	7
TAP	25	288	6
TAP	26	96	0
TAP	26	288	1
TAP	27	96	4
TAP	27	288	5
TAP	28	96	2
TAP	28	288	3
TAP	29	96	7
TAP	29	288	6
TAP	30	96	0
TAP	30	288	1
TAP	31	96	4
TAP	31	288	5
STR	32	0	4
SI_	32	0	4	96	216	7
BRK	33	0	6
TAP	33	192	7
TAP	33	288	7
TAP	34	0	6
TAP	34	192	6
TAP	34	192	7
TAP	35	0	5
TAP	35	192	5
TAP	35	288	4
HLD	36	0	4	192
TAP	37	0	5
TAP	37	192	7
TAP	37	288	0
TAP	38	0	7
TAP	38	192	0
TAP	38	192	7
TAP	39	0	2
TAP	39	192	0
TAP	39	288	7
HLD	40	0	0	192
BRK	41	0	2
TAP	41	192	3
TAP	41	288	3
TAP	42	0	2
TAP	42	192	2
TAP	42	192	3
TAP	43	0	1
TAP	43	192	1
TAP	43	288	0
HLD	44	0	0	192
TAP	45	0	1
TAP	45	192	3
TAP	45	288	4
TAP	46	0	3
TAP	46	192	3
TAP	46	192	4
TAP	47	0	5
TAP	47	192	7
TAP	48	0	0
TAP	48	192	0
TAP	48	192	7
TAP	48	288	0
TAP	48	288	7
STR	49	0	0
SI_	49	0	0	96	216	3
STR	49	0	7
SI_	49	0	7	96	216	4
TAP	53	0	4
TAP	53	192	5
TAP	54	0	3
TAP	54	192	2
TAP	55	0	4
TAP	55	192	5
STR	56	0	6
SI_	56	0	6	96	216	1
TAP	57	96	0
TAP	57	288	7
TAP	58	96	1
TAP	58	288	0
TAP	59	96	2
TAP	59	288	1
TAP	60	96	3
TAP	60	288	2
TAP	61	96	4
TAP	61	288	3
TAP	62	0	4
TAP	63	0	5
TAP	63	192	4
STR	64	0	3
SI_	64	0	3	96	216	0
BRK	65	0	7
TAP	65	192	6
TAP	65	288	6
TAP	66	0	5
TAP	66	192	4
TAP	66	192	5
TAP	67	0	4
TAP	67	192	3
TAP	67	288	3
HLD	68	0	4	192
TAP	69	0	3
TAP	69	192	2
TAP	69	288	2
TAP	70	0	1
TAP	70	192	1
TAP	70	192	2
TAP	71	0	0
TAP	71	0	1
TAP	71	192	7
TAP	71	288	0
TAP	72	0	7
TAP	72	192	0
TAP	72	288	0
STR	73	0	0
SI_	73	0	0	96	216	4

T_REC_TAP	116
T_REC_BRK	3
T_REC_XTP	0
T_REC_HLD	9
T_REC_XHO	0
T_REC_STR	7
T_REC_BST	0
T_REC_XST	0
T_REC_TTP	0
T_REC_THO	0
T_REC_SLD	7
T_REC_ALL	142
T_NUM_TAP	123
T_NUM_BRK	3
T_NUM_HLD	9
T_NUM_SLD	7
T_NUM_ALL	142
T_JUDGE_TAP	126
T_JUDGE_HLD	46
T_JUDGE_SLD	7
T_JUDGE_ALL	179
TTM_EACHPAIRS	10
TTM_SCR_TAP	61500
TTM_SCR_BRK	7800
TTM_SCR_HLD	9000
TTM_SCR_SLD	10500
TTM_SCR_ALL	88800
TTM_SCR_S	85850
TTM_SCR_SS	88500
TTM_RAT_ACV	10033

