VERSION	0.00.00	1.03.00
FES_MODE	0
BPM_DEF	150.000	150.000	150.000	150.000
MET_DEF	4	4
RESOLUTION	384
CLK_DEF	384
COMPATIBLE_CODE	MA2

BPM	0	0	150.000
MET	0	0	4	4

TAP	1	0	3
TAP	1	96	3
TAP	1	192	4
TAP	1	240	4
TAP	1	288	4
TAP	2	0	4
TAP	2	96	4
TAP	2	192	3
TAP	2	240	3
TAP	2	288	3
TAP	3	0	2
TAP	3	96	2
TAP	3	192	5
TAP	3	240	4
TAP	3	288	5
TAP	4	0	5
TAP	4	96	5
TAP	4	192	2
TAP	4	240	3
TAP	4	288	2
HLD	5	0	2	72
HLD	5	72	3	72
TAP	5	144	4
TAP	5	192	5
TAP	5	240	5
TAP	5	288	4
TAP	5	288	5
HLD	6	0	5	72
HLD	6	72	4	72
TAP	6	144	3
TAP	6	192	2
TAP	6	240	2
TAP	6	288	2
TAP	6	288	3
HLD	7	0	2	72
HLD	7	72	3	72
TAP	7	144	4
TAP	7	192	5
TAP	7	240	4
TAP	7	288	4
TAP	7	288	5
HLD	8	0	5	72
HLD	8	72	4	72
TAP	8	144	3
TAP	8	192	2
TAP	8	240	3
TAP	8	288	2
TAP	8	288	3
TAP	9	0	1
TAP	9	48	1
TAP	9	72	2
TAP	9	120	2
TAP	9	144	3
TAP	9	192	5
TAP	9	240	4
TAP	9	288	5
TAP	10	0	6
TAP	10	48	6
TAP	10	72	5
TAP	10	120	5
TAP	10	144	4
TAP	10	192	2
TAP	10	240	3
TAP	10	288	2
TAP	11	0	1
TAP	11	48	1
TAP	11	72	2
TAP	11	120	2
TAP	11	144	3
TAP	11	192	5
TAP	11	240	4
TAP	11	288	4
TAP	11	288	5
TAP	12	0	6
TAP	12	48	6
TAP	12	72	5
TAP	12	120	5
TAP	12	144	4
TAP	12	192	2
TAP	12	240	2
TAP	12	240	3
TAP	13	0	7
TAP	13	48	0
TAP	13	96	1
TAP	13	144	2
HLD	13	192	6	72
HLD	13	264	5	72
TAP	13	336	4
TAP	14	0	0
TAP	14	48	7
TAP	14	96	6
TAP	14	144	5
HLD	14	192	1	72
HLD	14	264	2	72
TAP	14	336	3
TAP	15	0	7
TAP	15	48	0
TAP	15	96	1
TAP	15	144	2
HLD	15	192	6	72
HLD	15	264	5	72
TAP	15	336	4
TAP	16	0	0
TAP	16	48	7
TAP	16	96	6
TAP	16	144	5
STR	16	192	1
SCR	16	192	1	96	48	4
TAP	17	0	0
TAP	17	48	0
STR	17	96	7
SI_	17	96	7	96	48	3
TAP	17	144	7
STR	17	192	1
SI_	17	192	1	96	48	5
TAP	18	0	7
TAP	18	48	7
STR	18	96	0
SI_	18	96	0	96	48	4
TAP	18	144	0
STR	18	192	6
SI_	18	192	6	96	48	2
TAP	19	0	0
TAP	19	48	0
STR	19	96	7
SI_	19	96	7	96	48	3
TAP	19	144	7
STR	19	192	1
SI_	19	192	1	96	48	5
TAP	20	0	0
TAP	20	48	0
STR	20	96	7
SI_	20	96	7	96	48	3
TAP	20	144	7
STR	20	192	1
SCR	20	192	1	96	48	4
TAP	21	0	0
TAP	21	48	0
TAP	21	72	7
TAP	21	120	7
TAP	21	144	6
STR	21	192	6
SCR	21	192	6	96	48	1
TAP	21	336	2
TAP	22	0	3
TAP	22	0	4
TAP	22	48	6
TAP	22	96	4
TAP	22	96	5
TAP	22	144	3
HLD	22	192	4	96
HLD	22	192	5	96
TAP	23	0	6
TAP	23	48	6
TAP	23	96	7
TAP	23	144	0
STR	23	192	1
SCL	23	192	1	96	48	6
TAP	23	216	1
TAP	23	336	5
TAP	24	0	3
TAP	24	0	4
STR	24	48	2
SCR	24	48	2	96	96	5
TAP	24	96	2
TAP	24	312	7
TAP	24	336	0
TAP	24	360	7
TAP	25	0	0
TAP	25	48	0
TAP	25	48	7
TAP	25	144	1
TAP	25	192	2
TAP	25	240	3
TAP	25	264	3
TAP	25	336	7
TAP	26	0	6
TAP	26	48	5
TAP	26	96	4
TAP	26	144	3
STR	26	192	2
SCR	26	192	2	96	48	5
TAP	27	0	1
TAP	27	48	0
TAP	27	96	7
TAP	27	144	6
STR	27	192	6
SCR	27	192	6	96	48	1
STR	27	240	1
SI_	27	240	1	96	48	5
STR	27	288	5
SI_	27	288	5	96	192	2
BRK	28	192	1
BRK	28	240	1
TAP	28	288	7
TAP	28	312	0
TAP	28	336	7
TAP	28	360	0
TAP	29	0	7
TAP	29	48	7
TAP	29	96	0
TAP	29	144	1
TAP	29	192	5
TAP	29	216	4
HLD	29	264	6	72
TAP	29	336	5
TAP	30	0	0
TAP	30	48	1
TAP	30	96	2
TAP	30	144	3
TAP	30	192	0
HLD	30	192	5	144
TAP	30	240	2
TAP	30	288	0
TAP	30	336	2
TAP	31	0	0
TAP	31	48	0
TAP	31	96	7
TAP	31	144	6
TAP	31	192	2
TAP	31	216	3
HLD	31	264	1	72
TAP	31	336	2
TAP	32	0	7
TAP	32	48	6
TAP	32	96	5
TAP	32	144	4
HLD	32	192	0	48
HLD	32	192	1	48
HLD	32	288	0	48
HLD	32	288	1	48
TAP	33	0	6
TAP	33	48	7
TAP	33	96	0
TAP	33	144	1
TAP	33	192	3
TAP	33	216	2
HLD	33	264	5	72
TAP	33	336	4
TAP	34	0	0
TAP	34	48	6
TAP	34	96	4
TAP	34	144	2
HLD	34	192	2	144
TAP	34	192	7
TAP	34	240	5
TAP	34	288	7
TAP	34	336	5
TAP	35	0	1
TAP	35	48	0
TAP	35	96	7
TAP	35	144	6
TAP	35	192	4
TAP	35	216	5
HLD	35	264	2	72
TAP	35	336	3
TAP	36	0	7
TAP	36	48	1
TAP	36	96	3
TAP	36	144	5
HLD	36	192	6	48
HLD	36	192	7	48
HLD	36	288	6	48
HLD	36	288	7	48
STR	37	0	1
SI_	37	0	1	96	48	6
HLD	37	48	1	240
STR	37	192	7
SI_	37	192	7	96	48	4
TAP	37	336	1
TAP	38	0	2
TAP	38	48	3
TAP	38	96	4
TAP	38	144	5
STR	38	192	6
SCL	38	192	6	96	48	3
STR	39	0	1
SI_	39	0	1	96	48	6
HLD	39	48	7	240
STR	39	192	0
SI_	39	192	0	96	48	3
TAP	39	336	6
TAP	40	0	5
TAP	40	48	4
TAP	40	96	3
TAP	40	144	2
STR	40	192	1
SCR	40	192	1	96	48	4
STR	41	0	0
SI_	41	0	0	96	48	5
STR	41	192	0
SI_	41	192	0	96	48	3
TAP	41	336	6
TAP	42	0	5
TAP	42	48	4
TAP	42	96	3
TAP	42	144	2
STR	42	192	1
SCR	42	192	1	96	96	4
STR	43	96	6
SCL	43	96	6	96	48	3
TAP	43	144	6
STR	43	192	2
SCR	43	192	2	96	48	5
TAP	43	240	2
TAP	44	0	5
TAP	44	24	4
TAP	44	48	5
TAP	44	72	2
TAP	44	96	3
TAP	44	120	2
TAP	44	144	4
TAP	44	192	2
TAP	44	192	3
TAP	44	264	4
TAP	44	264	5
BRK	44	336	1
BRK	44	336	6
TAP	45	0	6
TAP	45	48	6
TAP	45	72	5
TAP	45	120	5
TAP	45	144	4
TAP	45	192	2
TAP	45	192	3
TAP	45	240	1
TAP	45	240	2
TAP	45	288	2
TAP	45	288	3
TAP	46	0	1
TAP	46	48	1
TAP	46	72	2
TAP	46	120	2
TAP	46	144	3
TAP	46	192	4
TAP	46	192	5
TAP	46	240	5
TAP	46	240	6
TAP	46	288	4
TAP	46	288	5
STR	47	0	0
SI_	47	0	0	96	48	4
STR	47	96	6
SI_	47	96	6	96	48	2
STR	47	192	5
SI_	47	192	5	96	48	0
TAP	47	240	5
TAP	47	288	7
TAP	47	336	7
TAP	48	0	0
TAP	48	0	5
TAP	48	48	6
TAP	48	72	7
TAP	48	120	7
TAP	48	144	6
TAP	48	192	0
TAP	48	192	5
TAP	48	240	0
TAP	48	240	5
TAP	48	288	6
TAP	48	312	7
TAP	48	336	6
TAP	49	0	1
TAP	49	48	1
TAP	49	72	2
TAP	49	120	2
TAP	49	144	3
TAP	49	192	4
TAP	49	192	5
TAP	49	240	6
TAP	49	240	7
TAP	49	288	5
TAP	49	288	6
TAP	50	0	6
TAP	50	48	6
TAP	50	72	5
TAP	50	120	5
TAP	50	144	4
TAP	50	192	2
TAP	50	192	3
TAP	50	240	0
TAP	50	240	1
TAP	50	288	1
TAP	50	288	2
STR	51	0	7
SI_	51	0	7	96	48	3
STR	51	96	1
SI_	51	96	1	96	48	5
STR	51	192	2
SI_	51	192	2	96	48	7
TAP	51	240	2
TAP	51	288	0
TAP	51	336	0
TAP	52	0	2
TAP	52	0	7
TAP	52	48	1
TAP	52	72	0
TAP	52	120	0
TAP	52	144	1
TAP	52	192	2
TAP	52	192	7
TAP	52	240	2
TAP	52	240	7
TAP	52	288	1
TAP	52	312	0
TAP	52	336	1
TAP	53	0	6
TAP	53	48	6
TAP	53	72	5
TAP	53	120	5
TAP	53	144	4
TAP	53	192	1
TAP	53	192	3
TAP	53	240	1
TAP	53	240	7
TAP	53	288	5
TAP	53	288	7
TAP	54	0	1
TAP	54	48	1
TAP	54	72	2
TAP	54	120	2
TAP	54	144	3
TAP	54	192	4
TAP	54	192	6
TAP	54	240	0
TAP	54	240	6
TAP	54	288	0
STR	54	288	2
SI_	54	288	2	96	48	5
STR	55	0	6
SI_	55	0	6	96	48	1
STR	55	96	2
SI_	55	96	2	96	48	5
STR	55	192	6
SI_	55	192	6	96	48	1
TAP	56	0	0
TAP	56	0	7
TAP	56	48	6
TAP	56	48	7
TAP	56	72	6
TAP	56	72	7
TAP	56	120	0
TAP	56	120	1
TAP	56	144	0
TAP	56	144	1
TAP	56	192	0
TAP	56	192	7
TAP	56	240	0
TAP	56	240	7
TAP	56	288	1
TAP	56	288	6
TAP	56	312	1
TAP	56	312	6
TAP	56	336	1
TAP	56	336	6
TAP	57	0	1
TAP	57	48	1
TAP	57	72	2
TAP	57	120	2
TAP	57	144	3
TAP	57	192	4
TAP	57	192	7
TAP	57	240	1
TAP	57	240	6
TAP	57	288	0
TAP	57	288	3
TAP	58	0	6
TAP	58	48	6
TAP	58	72	5
TAP	58	120	5
TAP	58	144	4
TAP	58	192	0
TAP	58	192	3
TAP	58	240	1
TAP	58	240	6
TAP	58	288	4
TAP	58	288	7
HLD	59	0	1	96
HLD	59	96	0	96
HLD	59	192	7	96
HLD	59	288	6	96
TAP	60	0	5
TAP	60	48	3
TAP	60	48	4
TAP	60	72	2
TAP	60	72	5
TAP	60	192	0
TAP	60	192	7
TAP	60	240	0
TAP	60	240	7
TAP	60	264	1
TAP	60	264	6
TAP	60	336	0
TAP	60	336	7
TAP	61	0	0
TAP	61	24	1
TAP	61	48	7
TAP	61	72	6
TAP	61	96	1
TAP	61	120	2
TAP	61	144	6
TAP	61	168	5
TAP	61	192	2
TAP	61	216	3
TAP	61	240	5
TAP	61	264	4
TAP	61	288	3

T_REC_TAP	393
T_REC_BRK	4
T_REC_XTP	0
T_REC_HLD	36
T_REC_XHO	0
T_REC_STR	37
T_REC_BST	0
T_REC_XST	0
T_REC_TTP	0
T_REC_THO	0
T_REC_SLD	37
T_REC_ALL	507
T_NUM_TAP	430
T_NUM_BRK	4
T_NUM_HLD	36
T_NUM_SLD	37
T_NUM_ALL	507
T_JUDGE_TAP	434
T_JUDGE_HLD	72
T_JUDGE_SLD	37
T_JUDGE_ALL	543
TTM_EACHPAIRS	66
TTM_SCR_TAP	215000
TTM_SCR_BRK	10400
TTM_SCR_HLD	36000
TTM_SCR_SLD	55500
TTM_SCR_ALL	316900
TTM_SCR_S	307050
TTM_SCR_SS	316500
TTM_RAT_ACV	10012

