VERSION	0.00.00	1.03.00
FES_MODE	0
BPM_DEF	150.000	150.000	150.000	150.000
MET_DEF	4	4
RESOLUTION	384
CLK_DEF	384
COMPATIBLE_CODE	MA2

BPM	0	0	150.000
MET	0	0	4	4

TAP	1	0	1
TAP	1	0	5
TAP	1	96	2
TAP	1	96	6
TAP	1	192	1
TAP	1	192	5
TAP	1	288	1
TAP	1	288	5
TAP	2	0	2
TAP	2	0	6
TAP	2	96	1
TAP	2	96	5
TAP	2	192	2
TAP	2	192	6
TAP	2	288	2
TAP	2	288	6
TAP	3	0	1
TAP	3	0	5
TAP	3	96	2
TAP	3	96	6
TAP	3	192	1
TAP	3	192	5
TAP	3	288	1
TAP	3	288	5
TAP	4	0	2
TAP	4	0	6
TAP	4	96	1
TAP	4	96	5
TAP	4	192	2
TAP	4	192	6
TAP	4	288	2
TAP	4	288	6
TAP	5	0	3
TAP	5	72	3
TAP	5	144	3
HLD	5	192	2	96
HLD	5	192	6	96
TAP	6	0	4
TAP	6	72	4
TAP	6	144	4
HLD	6	192	1	96
HLD	6	192	5	96
TAP	7	0	3
TAP	7	72	3
TAP	7	144	3
HLD	7	192	2	96
HLD	7	192	6	96
TAP	8	0	4
TAP	8	72	4
TAP	8	144	4
HLD	8	192	1	96
HLD	8	192	5	96
TAP	9	0	2
TAP	9	72	2
TAP	9	144	2
TAP	9	192	6
TAP	9	240	7
TAP	9	288	6
TAP	10	0	5
TAP	10	72	5
TAP	10	144	5
TAP	10	192	1
TAP	10	240	0
TAP	10	288	1
TAP	11	0	2
TAP	11	72	2
TAP	11	144	2
TAP	11	192	6
TAP	11	240	7
TAP	11	288	6
TAP	12	0	5
TAP	12	72	5
TAP	12	144	5
TAP	12	192	1
TAP	12	240	0
TAP	12	240	1
HLD	13	0	2	96
HLD	13	96	4	96
HLD	13	192	5	96
TAP	13	288	6
HLD	14	0	5	96
HLD	14	96	3	96
HLD	14	192	2	96
TAP	14	288	1
HLD	15	0	2	96
HLD	15	96	4	96
HLD	15	192	6	96
TAP	15	288	0
HLD	16	0	5	96
HLD	16	96	3	96
HLD	16	192	1	96
TAP	16	288	7
TAP	17	0	3
TAP	17	48	3
TAP	17	96	5
TAP	17	144	5
HLD	17	192	6	96
TAP	17	288	7
TAP	18	0	4
TAP	18	48	4
TAP	18	96	2
TAP	18	144	2
HLD	18	192	1	96
TAP	18	288	0
TAP	19	0	2
TAP	19	48	3
TAP	19	96	2
TAP	19	144	3
TAP	19	192	4
TAP	19	240	5
TAP	19	288	6
TAP	20	0	5
TAP	20	48	4
TAP	20	96	5
TAP	20	144	4
TAP	20	192	3
TAP	20	240	2
BRK	20	288	1
TAP	21	0	1
TAP	21	96	1
TAP	21	192	0
TAP	21	288	0
TAP	22	0	1
TAP	22	0	7
TAP	22	96	0
TAP	22	96	6
HLD	22	192	1	96
HLD	22	192	5	96
TAP	23	0	6
TAP	23	48	5
TAP	23	96	6
TAP	23	192	7
TAP	23	240	6
TAP	23	288	7
TAP	24	0	0
TAP	24	0	6
TAP	24	96	1
TAP	24	96	7
HLD	24	192	2	96
HLD	24	192	6	96
TAP	25	0	1
TAP	25	96	4
TAP	25	96	5
TAP	25	192	6
TAP	25	288	2
TAP	25	288	3
TAP	26	0	4
TAP	26	0	6
TAP	26	96	1
TAP	26	96	3
HLD	26	192	1	96
HLD	26	192	6	96
TAP	27	0	4
TAP	27	48	5
TAP	27	96	6
TAP	27	144	7
TAP	27	192	0
TAP	27	240	1
TAP	27	288	2
STR	27	336	3
SCR	27	336	3	96	144	6
TAP	29	0	1
TAP	29	0	4
TAP	29	96	3
TAP	29	96	6
TAP	29	192	1
TAP	29	192	4
TAP	29	288	1
TAP	29	288	4
TAP	30	0	3
TAP	30	0	6
TAP	30	96	1
TAP	30	96	4
BRK	30	192	0
BRK	30	288	0
TAP	31	0	1
TAP	31	0	4
TAP	31	96	3
TAP	31	96	6
TAP	31	192	1
TAP	31	192	4
TAP	31	288	1
TAP	31	288	4
TAP	32	0	3
TAP	32	0	6
TAP	32	96	1
TAP	32	96	4
BRK	32	192	2
BRK	32	288	2
TAP	33	0	2
TAP	33	48	6
TAP	33	96	1
TAP	33	144	5
STR	33	192	0
SI_	33	192	0	96	48	4
TAP	34	0	5
TAP	34	48	1
TAP	34	96	6
TAP	34	144	2
STR	34	192	7
SI_	34	192	7	96	48	3
TAP	35	0	2
TAP	35	48	3
TAP	35	96	2
TAP	35	144	5
STR	35	192	2
SI_	35	192	2	96	48	7
TAP	36	0	5
TAP	36	48	4
TAP	36	96	5
TAP	36	144	2
STR	36	192	5
SI_	36	192	5	96	48	0
TAP	37	0	3
TAP	37	48	5
TAP	37	96	3
TAP	37	192	6
TAP	37	240	4
TAP	37	288	6
TAP	38	0	1
TAP	38	0	5
TAP	38	96	3
TAP	38	96	7
HLD	38	192	2	96
HLD	38	192	6	96
TAP	39	0	4
TAP	39	48	2
TAP	39	96	4
TAP	39	192	1
TAP	39	240	3
TAP	39	288	1
TAP	40	0	2
TAP	40	0	6
TAP	40	96	0
TAP	40	96	4
HLD	40	192	1	96
HLD	40	192	5	96
HLD	41	0	1	96
HLD	41	96	3	96
TAP	41	192	7
TAP	41	240	5
TAP	41	288	6
HLD	42	0	6	96
HLD	42	96	4	96
TAP	42	192	0
TAP	42	240	2
TAP	42	288	1
HLD	43	0	6	96
HLD	43	96	7	96
TAP	43	192	0
TAP	43	240	1
TAP	43	288	2
HLD	44	0	1	96
HLD	44	0	6	96
BRK	44	192	0
BRK	44	264	7
BRK	44	336	6
TAP	45	0	5
TAP	45	72	3
TAP	45	144	2
TAP	45	192	0
TAP	45	240	6
TAP	45	288	0
TAP	46	0	2
TAP	46	72	4
TAP	46	144	5
TAP	46	192	7
TAP	46	240	1
TAP	46	288	7
STR	47	0	6
SI_	47	0	6	96	48	1
STR	47	192	2
SI_	47	192	2	96	48	5
HLD	48	0	7	288
TAP	48	96	1
TAP	48	192	3
TAP	48	288	5
TAP	49	0	4
TAP	49	0	5
TAP	49	72	3
TAP	49	72	4
TAP	49	144	2
TAP	49	144	3
TAP	49	192	0
TAP	49	240	6
TAP	49	288	0
TAP	50	0	2
TAP	50	0	3
TAP	50	72	3
TAP	50	72	4
TAP	50	144	4
TAP	50	144	5
TAP	50	192	7
TAP	50	240	1
TAP	50	288	7
STR	51	0	1
SI_	51	0	1	96	48	6
STR	51	192	5
SI_	51	192	5	96	48	2
HLD	52	0	0	288
TAP	52	96	6
TAP	52	192	4
TAP	52	288	2
HLD	53	0	3	72
HLD	53	72	4	72
TAP	53	144	5
TAP	53	192	6
TAP	53	240	0
TAP	53	288	1
TAP	53	288	5
HLD	54	0	4	72
HLD	54	72	3	72
TAP	54	144	2
TAP	54	192	1
TAP	54	240	7
TAP	54	288	2
TAP	54	288	6
STR	55	0	1
SI_	55	0	1	96	48	5
STR	55	192	6
SI_	55	192	6	96	48	2
STR	56	0	3
SI_	56	0	3	96	48	0
STR	56	0	7
SI_	56	0	7	96	48	4
STR	56	192	0
SI_	56	192	0	96	48	3
STR	56	192	4
SI_	56	192	4	96	48	7
TAP	57	0	2
TAP	57	48	2
TAP	57	72	3
TAP	57	120	3
TAP	57	144	4
TAP	57	192	6
TAP	57	240	7
TAP	57	288	6
TAP	58	0	5
TAP	58	48	5
TAP	58	72	4
TAP	58	120	4
TAP	58	144	3
TAP	58	192	1
TAP	58	240	0
TAP	58	288	1
HLD	59	0	1	96
HLD	59	96	3	96
HLD	59	192	5	96
HLD	59	288	7	96
TAP	60	0	0
STR	60	48	0
SI_	60	48	0	96	48	5
TAP	60	192	7
STR	60	240	7
SI_	60	240	7	96	48	3
TAP	60	336	6
HLD	61	0	6	96
HLD	61	96	5	96
TAP	61	192	3
TAP	61	240	4
TAP	61	288	2
TAP	61	288	5

T_REC_TAP	268
T_REC_BRK	8
T_REC_XTP	0
T_REC_HLD	52
T_REC_XHO	0
T_REC_STR	17
T_REC_BST	0
T_REC_XST	0
T_REC_TTP	0
T_REC_THO	0
T_REC_SLD	17
T_REC_ALL	362
T_NUM_TAP	285
T_NUM_BRK	8
T_NUM_HLD	52
T_NUM_SLD	17
T_NUM_ALL	362
T_JUDGE_TAP	293
T_JUDGE_HLD	112
T_JUDGE_SLD	17
T_JUDGE_ALL	422
TTM_EACHPAIRS	62
TTM_SCR_TAP	142500
TTM_SCR_BRK	20800
TTM_SCR_HLD	52000
TTM_SCR_SLD	25500
TTM_SCR_ALL	240800
TTM_SCR_S	232800
TTM_SCR_SS	240000
TTM_RAT_ACV	10033

