VERSION	0.00.00	1.03.00
FES_MODE	0
BPM_DEF	150.000	150.000	150.000	150.000
MET_DEF	4	4
RESOLUTION	384
CLK_DEF	384
COMPATIBLE_CODE	MA2

BPM	0	0	150.000
MET	0	0	4	4

TAP	1	0	1
TAP	1	96	1
TAP	1	192	1
TAP	2	0	0
TAP	2	96	0
TAP	2	192	0
TAP	3	0	7
TAP	3	96	7
TAP	3	192	7
TAP	4	0	6
TAP	4	96	6
TAP	4	192	6
BRK	4	288	6
TAP	5	0	1
TAP	5	96	1
TAP	5	192	1
TAP	5	288	2
TAP	6	0	6
TAP	6	96	6
TAP	6	192	6
TAP	6	288	5
TAP	7	0	2
TAP	7	96	3
TAP	7	192	3
TAP	7	288	4
TAP	8	0	5
TAP	8	96	4
TAP	8	192	4
TAP	8	288	3
TAP	9	0	1
TAP	9	96	2
TAP	9	192	2
TAP	9	288	1
TAP	9	288	3
TAP	10	0	6
TAP	10	96	5
TAP	10	192	5
TAP	10	288	4
TAP	10	288	6
TAP	11	0	0
TAP	11	96	1
TAP	11	192	1
TAP	11	288	2
TAP	11	288	3
TAP	12	0	6
TAP	12	96	5
TAP	12	192	4
TAP	12	192	5
HLD	13	0	1	672
HLD	13	0	6	672
STR	15	0	1
SI_	15	0	1	96	72	6
STR	15	192	5
SI_	15	192	5	96	72	2
STR	16	0	1
SI_	16	0	1	96	72	6
STR	16	192	5
SI_	16	192	5	96	72	2
TAP	17	0	1
TAP	17	96	0
TAP	17	192	7
TAP	17	288	6
TAP	18	0	5
TAP	18	96	4
TAP	18	192	3
TAP	18	288	2
TAP	19	0	2
TAP	19	96	3
TAP	19	192	4
TAP	19	288	5
TAP	20	0	6
TAP	20	96	7
TAP	20	192	0
BRK	20	288	1
TAP	21	0	7
TAP	21	96	6
TAP	21	192	5
TAP	21	288	5
TAP	22	0	0
TAP	22	0	1
TAP	22	96	1
TAP	22	96	2
TAP	22	192	2
TAP	22	192	3
TAP	23	0	3
TAP	23	96	2
TAP	23	192	1
TAP	23	288	1
TAP	24	0	4
TAP	24	0	5
TAP	24	96	5
TAP	24	96	6
TAP	24	192	6
TAP	24	192	7
STR	25	0	0
SI_	25	0	0	96	72	3
STR	25	192	7
SI_	25	192	7	96	72	4
TAP	26	0	1
TAP	26	96	0
BRK	26	192	7
TAP	27	0	1
TAP	27	96	3
TAP	27	96	4
TAP	27	192	6
STR	27	288	0
SCR	27	288	0	96	192	3
STR	27	288	7
SCL	27	288	7	96	192	4
BRK	29	0	0
TAP	29	96	1
TAP	29	96	7
TAP	29	192	5
TAP	29	288	4
TAP	29	288	6
TAP	30	0	2
TAP	30	96	1
TAP	30	96	3
TAP	30	192	1
TAP	30	192	2
BRK	30	288	1
BRK	30	288	2
TAP	31	0	7
TAP	31	96	0
TAP	31	96	6
TAP	31	192	2
TAP	31	288	1
TAP	31	288	3
TAP	32	0	5
TAP	32	96	4
TAP	32	96	6
TAP	32	192	5
TAP	32	192	6
BRK	32	288	5
BRK	32	288	6
STR	33	0	0
SI_	33	0	0	96	72	3
STR	33	192	7
SI_	33	192	7	96	72	4
TAP	34	0	3
TAP	34	96	4
TAP	34	192	0
TAP	34	192	7
BRK	34	288	1
BRK	34	288	6
STR	35	0	1
SI_	35	0	1	96	72	6
STR	35	192	5
SI_	35	192	5	96	72	2
TAP	36	0	1
TAP	36	96	6
TAP	36	192	3
TAP	36	192	7
BRK	36	288	0
BRK	36	288	4
TAP	37	0	0
TAP	37	96	2
TAP	37	192	1
TAP	38	0	0
TAP	38	0	1
TAP	38	96	0
TAP	38	96	7
TAP	38	192	6
TAP	38	192	7
TAP	39	0	1
TAP	39	0	5
TAP	39	96	1
TAP	39	96	5
TAP	39	192	2
TAP	39	192	6
TAP	39	288	2
TAP	39	288	6
TAP	40	0	4
TAP	40	0	5
TAP	40	96	3
TAP	40	96	4
TAP	40	192	2
TAP	40	192	3
TAP	41	0	1
TAP	41	192	3
TAP	42	0	5
TAP	42	192	7
TAP	43	0	6
TAP	43	96	4
TAP	43	192	2
TAP	43	288	0
TAP	44	0	6
TAP	44	0	7
TAP	44	96	0
TAP	44	96	1
BRK	44	192	0
BRK	44	192	7
TAP	45	0	5
TAP	45	96	7
TAP	45	192	6
TAP	45	288	6
TAP	46	0	2
TAP	46	96	0
TAP	46	192	1
TAP	46	288	1
TAP	47	0	4
TAP	47	96	6
TAP	47	192	0
TAP	47	288	2
TAP	48	0	0
TAP	48	96	2
TAP	48	192	4
BRK	48	288	6
TAP	49	0	1
TAP	49	96	3
TAP	49	192	5
TAP	49	288	5
TAP	50	0	6
TAP	50	96	4
TAP	50	192	2
TAP	50	288	2
TAP	51	0	3
TAP	51	96	5
TAP	51	192	7
TAP	51	288	1
TAP	52	0	7
TAP	52	96	5
TAP	52	192	3
BRK	52	288	1
TAP	53	0	0
TAP	53	0	1
TAP	53	96	6
TAP	53	96	7
TAP	53	192	0
TAP	53	192	1
TAP	54	0	4
TAP	54	0	5
TAP	54	96	2
TAP	54	96	3
TAP	54	192	4
TAP	54	192	5
STR	55	0	2
SI_	55	0	2	96	72	7
STR	55	192	6
SI_	55	192	6	96	72	3
TAP	56	0	1
TAP	56	96	0
TAP	56	192	7
BRK	56	288	6
TAP	57	0	0
TAP	57	0	1
TAP	57	96	2
TAP	57	96	7
TAP	57	192	0
TAP	57	192	1
TAP	58	0	6
TAP	58	0	7
TAP	58	96	0
TAP	58	96	5
TAP	58	192	6
TAP	58	192	7
TAP	59	0	0
TAP	59	96	1
TAP	59	192	2
TAP	59	288	3
TAP	60	0	4
TAP	60	96	5
TAP	60	192	6
TAP	60	288	7
TAP	61	0	1
TAP	61	96	0
TAP	61	192	7
BRK	61	288	6

T_REC_TAP	220
T_REC_BRK	18
T_REC_XTP	0
T_REC_HLD	2
T_REC_XHO	0
T_REC_STR	14
T_REC_BST	0
T_REC_XST	0
T_REC_TTP	0
T_REC_THO	0
T_REC_SLD	14
T_REC_ALL	268
T_NUM_TAP	234
T_NUM_BRK	18
T_NUM_HLD	2
T_NUM_SLD	14
T_NUM_ALL	268
T_JUDGE_TAP	252
T_JUDGE_HLD	28
T_JUDGE_SLD	14
T_JUDGE_ALL	294
TTM_EACHPAIRS	52
TTM_SCR_TAP	117000
TTM_SCR_BRK	46800
TTM_SCR_HLD	2000
TTM_SCR_SLD	21000
TTM_SCR_ALL	186800
TTM_SCR_S	179450
TTM_SCR_SS	185000
TTM_RAT_ACV	10097

