VERSION	0.00.00	1.03.00
FES_MODE	0
BPM_DEF	150.000	150.000	150.000	150.000
MET_DEF	4	4
RESOLUTION	384
CLK_DEF	384
COMPATIBLE_CODE	MA2

BPM	0	0	150.000
MET	0	0	4	4

TAP	5	0	3
TAP	6	0	3
TAP	7	0	4
TAP	8	0	4
TAP	9	0	2
TAP	10	0	2
TAP	11	0	5
TAP	12	0	5
TAP	13	0	6
TAP	13	192	7
TAP	14	0	6
TAP	15	0	7
TAP	15	192	0
TAP	16	0	7
TAP	17	0	1
TAP	17	192	0
TAP	18	0	1
TAP	19	0	2
TAP	19	192	3
TAP	20	0	2
TAP	21	0	4
TAP	21	192	5
TAP	22	0	5
TAP	22	96	5
TAP	22	192	5
HLD	23	0	6	192
HLD	24	0	1	192
TAP	25	0	7
TAP	25	192	0
TAP	26	0	7
TAP	26	96	7
TAP	26	192	7
TAP	27	0	0
TAP	27	0	7
STR	27	192	0
SI_	27	192	0	96	288	3
STR	27	192	7
SI_	27	192	7	96	288	4
TAP	30	192	0
TAP	30	192	7
TAP	30	288	1
TAP	30	288	6
TAP	32	192	3
TAP	32	192	4
TAP	32	288	2
TAP	32	288	5
TAP	34	192	0
TAP	34	192	7
TAP	34	288	1
TAP	34	288	6
TAP	36	192	3
TAP	36	192	4
TAP	36	288	2
TAP	36	288	5
TAP	37	0	2
TAP	37	0	5
TAP	37	192	6
TAP	38	0	7
TAP	38	96	7
BRK	38	192	7
TAP	39	0	6
TAP	39	192	6
TAP	40	0	0
TAP	40	96	0
BRK	40	192	0
TAP	41	0	1
TAP	41	192	0
TAP	42	0	7
TAP	42	192	6
TAP	43	96	5
TAP	43	192	4
TAP	43	288	3
HLD	44	0	2	192
TAP	45	0	1
TAP	45	192	0
TAP	46	0	1
TAP	46	192	0
TAP	47	0	7
TAP	47	192	7
TAP	48	0	7
TAP	48	96	7
TAP	48	192	7
TAP	49	0	6
TAP	49	192	5
TAP	50	0	4
TAP	50	192	3
TAP	51	0	2
TAP	51	192	2
TAP	52	0	3
TAP	52	96	3
TAP	52	192	3
TAP	53	0	4
TAP	53	192	5
TAP	54	0	6
TAP	54	192	7
TAP	55	0	0
TAP	55	192	7
TAP	56	0	0
TAP	56	0	7
TAP	56	96	0
TAP	56	96	7
TAP	56	192	0
TAP	56	192	7
TAP	57	0	0
TAP	57	192	1
TAP	58	0	2
TAP	58	192	3
TAP	59	0	4
TAP	59	192	5
TAP	60	0	6
TAP	60	192	7
TAP	61	0	0
TAP	61	96	0
TAP	61	192	7
TAP	61	288	0
TAP	61	288	7

T_REC_TAP	107
T_REC_BRK	2
T_REC_XTP	0
T_REC_HLD	3
T_REC_XHO	0
T_REC_STR	2
T_REC_BST	0
T_REC_XST	0
T_REC_TTP	0
T_REC_THO	0
T_REC_SLD	2
T_REC_ALL	116
T_NUM_TAP	109
T_NUM_BRK	2
T_NUM_HLD	3
T_NUM_SLD	2
T_NUM_ALL	116
T_JUDGE_TAP	111
T_JUDGE_HLD	12
T_JUDGE_SLD	2
T_JUDGE_ALL	125
TTM_EACHPAIRS	15
TTM_SCR_TAP	54500
TTM_SCR_BRK	5200
TTM_SCR_HLD	3000
TTM_SCR_SLD	3000
TTM_SCR_ALL	65700
TTM_SCR_S	63550
TTM_SCR_SS	65500
TTM_RAT_ACV	10030

