VERSION	0.00.00	1.03.00
FES_MODE	0
BPM_DEF	150.000	150.000	150.000	150.000
MET_DEF	4	4
RESOLUTION	384
CLK_DEF	384
COMPATIBLE_CODE	MA2

BPM	0	0	150.000
MET	0	0	4	4

TAP	2	0	0
TAP	2	96	7
TAP	2	192	0
TAP	2	240	7
STR	2	288	0
SI_	2	288	0	96	48	3
STR	2	336	7
SI_	2	336	7	96	48	4
TAP	3	96	2
TAP	3	120	3
TAP	3	168	1
TAP	3	192	0
TAP	3	216	1
TAP	3	240	0
TAP	3	288	5
TAP	3	336	2
TAP	4	0	5
TAP	4	48	1
TAP	4	72	0
TAP	4	96	1
TAP	4	120	7
TAP	4	144	1
TAP	4	168	7
TAP	4	192	1
TAP	4	216	6
TAP	4	240	1
TAP	4	264	6
STR	4	288	0
SI_	4	288	0	96	48	3
STR	4	336	7
SI_	4	336	7	96	48	4
TAP	5	96	0
TAP	5	120	6
TAP	5	144	0
TAP	5	168	6
TAP	5	192	1
TAP	5	216	6
TAP	5	240	1
TAP	5	264	6
TAP	5	288	2
TAP	5	312	6
TAP	5	336	2
TAP	5	360	6
TAP	6	0	3
TAP	6	48	5
TAP	6	72	4
TAP	6	96	6
TAP	6	120	3
TAP	6	144	6
TAP	6	168	3
TAP	6	192	7
TAP	6	216	2
TAP	6	240	7
STR	6	288	0
SI_	6	288	0	96	48	3
STR	6	336	7
SI_	6	336	7	96	48	4
TAP	7	96	2
TAP	7	120	3
TAP	7	168	1
TAP	7	192	0
TAP	7	216	1
TAP	7	240	0
TAP	7	288	5
TAP	7	336	2
TAP	8	0	5
TAP	8	48	1
TAP	8	72	0
TAP	8	96	1
TAP	8	120	7
TAP	8	144	1
TAP	8	168	7
TAP	8	192	1
TAP	8	216	6
TAP	8	240	1
TAP	8	264	6
STR	8	288	0
SI_	8	288	0	96	48	3
STR	8	336	7
SI_	8	336	7	96	48	4
TAP	9	96	0
TAP	9	120	6
TAP	9	144	0
TAP	9	168	6
TAP	9	192	1
TAP	9	216	6
TAP	9	240	1
TAP	9	264	6
TAP	9	288	2
TAP	9	312	6
TAP	9	336	2
TAP	9	360	6
TAP	10	0	3
TAP	10	48	5
TAP	10	72	4
TAP	10	96	6
TAP	10	120	3
TAP	10	144	6
TAP	10	168	3
TAP	10	192	7
TAP	10	216	2
TAP	10	240	7
STR	10	288	0
SI_	10	288	0	96	48	3
TAP	10	336	7
STR	11	0	0
SI_	11	0	0	96	48	4
TAP	11	48	6
TAP	11	72	6
TAP	11	144	6
TAP	11	168	6
TAP	11	192	3
TAP	11	216	4
TAP	11	240	3
TAP	11	264	4
TAP	11	288	2
TAP	11	312	5
TAP	11	336	2
TAP	11	360	5
TAP	12	0	0
TAP	12	48	7
TAP	12	96	4
TAP	12	120	3
TAP	12	144	4
TAP	12	168	3
TAP	12	192	5
TAP	12	216	2
TAP	12	240	6
TAP	12	264	1
STR	12	288	7
SI_	12	288	7	96	48	4
TAP	12	336	0
STR	13	0	7
SI_	13	0	7	96	48	3
TAP	13	48	1
TAP	13	72	1
TAP	13	144	1
TAP	13	168	1
TAP	13	192	4
TAP	13	216	3
TAP	13	240	4
TAP	13	264	3
TAP	13	288	5
TAP	13	312	2
TAP	13	336	5
TAP	13	360	2
TAP	14	0	7
TAP	14	48	0
TAP	14	96	3
TAP	14	120	4
TAP	14	144	3
TAP	14	168	4
TAP	14	192	2
TAP	14	216	5
TAP	14	240	2
TAP	14	264	5
STR	14	288	0
SI_	14	288	0	96	48	3
TAP	14	336	7
STR	15	0	0
SI_	15	0	0	96	48	4
TAP	15	48	6
TAP	15	72	6
TAP	15	144	6
TAP	15	168	6
TAP	15	192	3
TAP	15	216	4
TAP	15	240	3
TAP	15	264	4
TAP	15	288	2
TAP	15	312	5
TAP	15	336	2
TAP	15	360	5
TAP	16	0	0
TAP	16	48	7
TAP	16	96	4
TAP	16	120	3
TAP	16	144	4
TAP	16	168	3
TAP	16	192	5
TAP	16	216	2
TAP	16	240	6
TAP	16	264	1
STR	16	288	7
SI_	16	288	7	96	48	4
TAP	16	336	0
STR	17	0	7
SI_	17	0	7	96	48	3
TAP	17	48	1
TAP	17	72	1
TAP	17	144	1
TAP	17	168	1
TAP	17	192	4
TAP	17	216	3
TAP	17	240	4
TAP	17	264	3
TAP	17	288	5
TAP	17	312	2
TAP	17	336	5
TAP	17	360	2
TAP	18	0	7
TAP	18	48	0
TAP	18	96	3
TAP	18	120	4
TAP	18	144	3
TAP	18	168	4
TAP	18	192	2
TAP	18	216	5
TAP	18	240	2
TAP	18	264	5
TAP	18	288	0
TAP	18	336	0
TAP	19	0	5
TAP	19	48	0
TAP	19	96	4
TAP	19	120	3
TAP	19	168	3
TAP	19	240	7
TAP	19	288	0
TAP	20	0	5
TAP	20	24	4
TAP	20	72	5
TAP	20	120	2
TAP	20	144	3
TAP	20	192	4
TAP	20	216	3
TAP	20	240	4
TAP	20	288	2
TAP	20	336	2
TAP	21	0	4
TAP	21	48	0
TAP	21	72	4
TAP	21	120	0
TAP	21	168	5
TAP	21	192	4
TAP	21	216	5
TAP	21	264	2
TAP	21	288	3
TAP	21	336	4
TAP	21	360	0
TAP	22	0	5
TAP	22	24	4
TAP	22	48	5
TAP	22	72	4
TAP	22	120	5
TAP	22	144	4
TAP	22	192	6
TAP	22	216	5
TAP	22	240	4
TAP	22	264	3
TAP	22	288	2
TAP	22	312	3
TAP	22	336	4
TAP	22	360	5
TAP	23	0	1
TAP	23	48	7
TAP	23	72	0
TAP	23	120	7
TAP	23	144	3
TAP	23	168	7
TAP	23	192	3
TAP	23	240	5
TAP	23	288	0
TAP	23	312	4
TAP	23	360	4
TAP	24	0	3
TAP	24	48	5
TAP	24	72	4
TAP	24	120	5
TAP	24	144	4
TAP	24	192	5
TAP	24	216	2
TAP	24	240	4
TAP	24	288	2
TAP	24	336	5
TAP	25	0	3
TAP	25	48	7
TAP	25	96	3
TAP	25	120	7
TAP	25	168	3
TAP	25	192	5
TAP	25	216	3
TAP	25	264	5
TAP	25	288	4
TAP	25	336	5
TAP	25	360	0
TAP	26	0	5
TAP	26	48	3
TAP	26	72	4
TAP	26	120	3
TAP	26	144	4
TAP	26	192	0
TAP	26	216	7
TAP	26	240	0
TAP	26	264	7
STR	26	288	0
SI_	26	288	0	96	48	3
TAP	26	336	7
STR	27	0	0
SI_	27	0	0	96	48	4
TAP	27	48	6
TAP	27	72	6
TAP	27	144	6
TAP	27	168	6
TAP	27	192	3
TAP	27	216	4
TAP	27	240	3
TAP	27	264	4
TAP	27	288	2
TAP	27	312	5
TAP	27	336	2
TAP	27	360	5
TAP	28	0	0
TAP	28	48	7
TAP	28	96	4
TAP	28	120	3
TAP	28	144	4
TAP	28	168	3
TAP	28	192	5
TAP	28	216	2
TAP	28	240	6
TAP	28	264	1
STR	28	288	7
SI_	28	288	7	96	48	4
TAP	28	336	0
STR	29	0	7
SI_	29	0	7	96	48	3
TAP	29	48	1
TAP	29	72	1
TAP	29	144	1
TAP	29	168	1
TAP	29	192	4
TAP	29	216	3
TAP	29	240	4
TAP	29	264	3
TAP	29	288	5
TAP	29	312	2
TAP	29	336	5
TAP	29	360	2
TAP	30	0	7
TAP	30	48	0
TAP	30	96	3
TAP	30	120	4
TAP	30	144	3
TAP	30	168	4
TAP	30	192	2
TAP	30	216	5
TAP	30	240	2
TAP	30	264	5
TAP	30	312	1
TAP	30	360	1
TAP	31	0	6
TAP	31	48	1
TAP	31	72	1
TAP	31	96	6
TAP	31	144	1
TAP	31	168	1
TAP	31	192	6
TAP	31	240	1
TAP	31	264	1
TAP	31	288	4
TAP	31	312	4
TAP	31	360	3
TAP	32	0	6
TAP	32	48	1
TAP	32	72	1
TAP	32	96	6
TAP	32	144	1
TAP	32	168	1
TAP	32	192	7
TAP	32	240	7
TAP	32	288	7
TAP	32	336	7
TAP	33	0	1
TAP	33	48	6
TAP	33	72	6
TAP	33	96	1
TAP	33	144	6
TAP	33	168	6
TAP	33	192	1
TAP	33	216	7
TAP	33	240	1
TAP	33	264	7
TAP	33	288	0
TAP	33	336	0
TAP	34	0	0
TAP	34	48	6
TAP	34	72	7
TAP	34	96	6
TAP	34	120	7
TAP	34	168	0
TAP	34	192	6
TAP	34	240	6
TAP	34	288	6
TAP	34	336	6
TAP	35	0	2
BRK	35	48	7
STR	35	96	1
SI_	35	96	1	96	24	4
TAP	35	120	1
TAP	35	168	6
TAP	36	0	4
BRK	36	48	0
STR	36	96	6
SI_	36	96	6	96	24	3
TAP	36	120	6
TAP	36	168	1
TAP	37	0	3
BRK	37	48	7
STR	37	96	1
SI_	37	96	1	96	24	4
TAP	37	120	1
TAP	37	168	6
TAP	37	288	5
TAP	37	336	5
TAP	38	0	5
BRK	38	48	0
STR	38	96	6
SI_	38	96	6	96	24	3
TAP	38	120	6
TAP	38	168	1
TAP	38	240	2
TAP	38	288	2
TAP	38	336	2
TAP	39	0	2
BRK	39	48	7
TAP	39	96	4
TAP	39	120	4
TAP	39	168	3
TAP	39	192	5
BRK	39	240	0
TAP	39	288	3
TAP	39	312	3
TAP	39	360	4
TAP	40	0	2
BRK	40	48	7
TAP	40	96	4
TAP	40	120	4
TAP	40	168	3
TAP	40	192	5
BRK	40	240	0
TAP	40	288	3
TAP	40	312	3
TAP	40	360	4
TAP	41	0	2
BRK	41	48	0
BRK	41	48	7
TAP	41	96	5
BRK	41	144	0
BRK	41	144	7
TAP	41	192	2
BRK	41	240	0
BRK	41	240	7
TAP	41	288	5
BRK	41	336	0
BRK	41	336	7
TAP	42	0	3
BRK	42	48	0
BRK	42	48	7
TAP	42	96	4
BRK	42	144	0
BRK	42	144	7
TAP	42	192	3
BRK	42	240	0
BRK	42	240	7
TAP	42	288	4
BRK	42	336	0
BRK	42	336	7
BRK	43	0	6
BRK	43	0	7
TAP	43	48	0
TAP	43	48	5
BRK	43	96	1
BRK	43	96	4
TAP	43	144	2
TAP	43	144	3
BRK	43	192	0
BRK	43	192	1
TAP	43	240	2
TAP	43	240	7
BRK	43	288	3
BRK	43	288	6
TAP	43	336	4
TAP	43	336	5
BRK	44	0	3
BRK	44	0	4
TAP	44	48	2
TAP	44	48	5
BRK	44	96	1
BRK	44	96	6
TAP	44	144	0
TAP	44	144	7
TAP	44	192	1
TAP	44	216	6
TAP	44	240	1
TAP	44	264	6
TAP	44	288	0
STR	44	288	7
SI_	44	288	7	96	48	4
TAP	44	312	0
TAP	44	312	7
STR	44	336	0
SI_	44	336	0	96	48	3
TAP	44	336	7
TAP	45	96	5
TAP	45	120	4
TAP	45	168	6
TAP	45	192	7
TAP	45	216	6
TAP	45	240	7
TAP	45	288	2
TAP	45	336	5
TAP	46	0	2
TAP	46	48	6
TAP	46	72	7
TAP	46	96	6
TAP	46	120	0
TAP	46	144	6
TAP	46	168	0
TAP	46	192	6
TAP	46	216	1
TAP	46	240	6
TAP	46	264	1
STR	46	288	7
SI_	46	288	7	96	48	4
STR	46	336	0
SI_	46	336	0	96	48	3
TAP	47	96	7
TAP	47	120	0
TAP	47	144	7
TAP	47	168	0
TAP	47	192	6
TAP	47	216	1
TAP	47	240	6
TAP	47	264	1
TAP	47	288	5
TAP	47	312	1
TAP	47	336	5
TAP	47	360	1
TAP	48	0	4
TAP	48	48	2
TAP	48	72	3
TAP	48	96	1
TAP	48	120	4
TAP	48	144	1
TAP	48	168	4
TAP	48	192	0
TAP	48	216	5
TAP	48	240	0
STR	48	288	7
SI_	48	288	7	96	48	4
STR	48	336	0
SI_	48	336	0	96	48	3
TAP	49	96	5
TAP	49	120	4
TAP	49	168	6
TAP	49	192	7
TAP	49	216	6
TAP	49	240	7
TAP	49	288	2
TAP	49	336	5
TAP	50	0	2
TAP	50	48	6
TAP	50	72	7
TAP	50	96	6
TAP	50	120	0
TAP	50	144	6
TAP	50	168	0
TAP	50	192	6
TAP	50	216	1
TAP	50	240	6
TAP	50	264	1
STR	50	288	7
SI_	50	288	7	96	48	4
STR	50	336	0
SI_	50	336	0	96	48	3
TAP	51	96	7
TAP	51	120	0
TAP	51	144	7
TAP	51	168	0
TAP	51	192	6
TAP	51	216	1
TAP	51	240	6
TAP	51	264	1
TAP	51	288	5
TAP	51	312	1
TAP	51	336	5
TAP	51	360	1
TAP	52	0	4
TAP	52	48	2
TAP	52	72	3
TAP	52	96	1
TAP	52	120	4
TAP	52	144	1
TAP	52	168	4
TAP	52	192	0
TAP	52	216	5
TAP	52	240	0
STR	52	288	7
SI_	52	288	7	96	48	4
TAP	52	336	0
STR	53	0	7
SI_	53	0	7	96	48	3
TAP	53	48	1
TAP	53	72	1
TAP	53	144	1
TAP	53	168	1
TAP	53	192	4
TAP	53	216	3
TAP	53	240	4
TAP	53	264	3
TAP	53	288	5
TAP	53	312	2
TAP	53	336	5
TAP	53	360	2
TAP	54	0	7
TAP	54	48	0
TAP	54	96	3
TAP	54	120	4
TAP	54	144	3
TAP	54	168	4
TAP	54	192	2
TAP	54	216	5
TAP	54	240	1
TAP	54	264	6
STR	54	288	0
SI_	54	288	0	96	48	3
TAP	54	336	7
STR	55	0	0
SI_	55	0	0	96	48	4
TAP	55	48	6
TAP	55	72	6
TAP	55	144	6
TAP	55	168	6
TAP	55	192	3
TAP	55	216	4
TAP	55	240	3
TAP	55	264	4
TAP	55	288	2
TAP	55	312	5
TAP	55	336	2
TAP	55	360	5
TAP	56	0	0
TAP	56	48	7
TAP	56	96	4
TAP	56	120	3
TAP	56	144	4
TAP	56	168	3
TAP	56	192	5
TAP	56	216	2
TAP	56	240	5
TAP	56	264	2
STR	56	288	7
SI_	56	288	7	96	48	4
TAP	56	336	0
STR	57	0	7
SI_	57	0	7	96	48	3
TAP	57	48	1
TAP	57	72	1
TAP	57	144	1
TAP	57	168	1
TAP	57	192	4
TAP	57	216	3
TAP	57	240	4
TAP	57	264	3
TAP	57	288	5
TAP	57	312	2
TAP	57	336	5
TAP	57	360	2
TAP	58	0	7
TAP	58	48	0
TAP	58	96	3
TAP	58	120	4
TAP	58	144	3
TAP	58	168	4
TAP	58	192	2
TAP	58	216	5
TAP	58	240	1
TAP	58	264	6
STR	58	288	0
SI_	58	288	0	96	48	3
TAP	58	336	7
STR	59	0	0
SI_	59	0	0	96	48	4
TAP	59	48	6
TAP	59	72	6
TAP	59	144	6
TAP	59	168	6
TAP	59	192	3
TAP	59	216	4
TAP	59	240	3
TAP	59	264	4
TAP	59	288	2
TAP	59	312	5
TAP	59	336	2
TAP	59	360	5
TAP	60	0	0
TAP	60	48	7
TAP	60	96	5
TAP	60	120	2
TAP	60	144	5
TAP	60	168	2
TAP	60	192	6
TAP	60	216	1
TAP	60	240	6
TAP	60	264	1
BRK	60	288	0
BRK	60	288	7
BRK	60	336	0
BRK	60	336	7

T_REC_TAP	590
T_REC_BRK	40
T_REC_XTP	0
T_REC_HLD	0
T_REC_XHO	0
T_REC_STR	40
T_REC_BST	0
T_REC_XST	0
T_REC_TTP	0
T_REC_THO	0
T_REC_SLD	40
T_REC_ALL	710
T_NUM_TAP	630
T_NUM_BRK	40
T_NUM_HLD	0
T_NUM_SLD	40
T_NUM_ALL	710
T_JUDGE_TAP	670
T_JUDGE_HLD	0
T_JUDGE_SLD	40
T_JUDGE_ALL	710
TTM_EACHPAIRS	25
TTM_SCR_TAP	315000
TTM_SCR_BRK	104000
TTM_SCR_HLD	0
TTM_SCR_SLD	60000
TTM_SCR_ALL	479000
TTM_SCR_S	460750
TTM_SCR_SS	475000
TTM_RAT_ACV	10084

