VERSION	0.00.00	1.03.00
FES_MODE	0
BPM_DEF	150.000	150.000	150.000	150.000
MET_DEF	4	4
RESOLUTION	384
CLK_DEF	384
COMPATIBLE_CODE	MA2

BPM	0	0	150.000
MET	0	0	4	4

TAP	3	0	1
TAP	3	48	0
TAP	3	96	1
TAP	3	144	2
TAP	3	192	3
TAP	3	240	4
TAP	3	288	4
TAP	3	336	3
TAP	4	0	5
TAP	4	48	2
TAP	4	96	4
TAP	4	144	3
TAP	4	192	3
TAP	4	240	5
TAP	4	288	6
TAP	4	336	5
TAP	5	0	6
TAP	5	48	7
TAP	5	96	6
TAP	5	144	5
TAP	5	192	4
TAP	5	240	3
TAP	5	288	3
TAP	5	336	4
TAP	6	0	2
TAP	6	48	5
TAP	6	96	2
TAP	6	144	2
STR	6	192	6
SI_	6	192	6	96	48	2
TAP	7	0	1
TAP	7	48	3
TAP	7	96	1
TAP	7	144	4
TAP	7	192	2
TAP	7	240	5
TAP	7	288	4
TAP	7	336	4
TAP	8	0	6
TAP	8	48	4
TAP	8	96	6
TAP	8	144	3
TAP	8	192	5
TAP	8	240	2
TAP	8	288	4
TAP	8	336	3
TAP	9	0	2
TAP	9	0	3
TAP	9	96	4
TAP	9	96	5
TAP	9	192	0
TAP	9	192	1
TAP	9	288	6
TAP	9	288	7
TAP	10	0	7
TAP	10	48	0
TAP	10	96	6
TAP	10	144	1
TAP	10	192	5
TAP	10	240	2
TAP	10	288	4
TAP	10	312	3
TAP	10	336	4
TAP	10	360	3
TAP	11	0	4
TAP	11	48	2
TAP	11	96	3
TAP	11	144	2
TAP	11	192	4
TAP	11	240	3
TAP	11	288	5
TAP	11	336	6
TAP	12	0	5
TAP	12	48	5
TAP	12	96	3
TAP	12	144	5
TAP	12	192	1
TAP	12	240	2
TAP	12	288	3
TAP	12	336	2
TAP	13	0	3
TAP	13	48	5
TAP	13	96	4
TAP	13	144	5
TAP	13	192	3
TAP	13	240	4
TAP	13	288	2
TAP	13	336	1
TAP	14	0	2
TAP	14	48	2
TAP	14	96	4
TAP	14	144	4
STR	14	192	1
SI_	14	192	1	96	48	5
TAP	15	0	7
TAP	15	48	6
TAP	15	96	5
TAP	15	144	4
TAP	15	192	3
TAP	15	240	2
TAP	15	288	1
TAP	15	336	0
TAP	16	0	0
TAP	16	48	1
TAP	16	96	2
TAP	16	144	3
TAP	16	192	4
TAP	16	240	5
TAP	16	288	6
TAP	16	336	7
TAP	17	0	6
TAP	17	0	7
TAP	17	96	0
TAP	17	96	1
TAP	17	192	2
TAP	17	192	3
TAP	17	288	4
TAP	17	288	5
TAP	18	0	3
TAP	18	48	4
TAP	18	96	2
TAP	18	144	5
TAP	18	192	1
TAP	18	240	6
TAP	18	288	0
TAP	18	312	7
TAP	18	336	0
TAP	18	360	7
TAP	19	0	0
TAP	19	48	6
TAP	19	96	0
TAP	19	144	5
TAP	19	192	1
TAP	19	240	7
TAP	19	288	0
TAP	19	288	7
TAP	20	0	7
TAP	20	48	7
TAP	20	96	0
TAP	20	144	1
TAP	20	192	2
TAP	20	240	2
TAP	20	288	3
TAP	20	336	4
TAP	21	0	5
TAP	21	48	4
TAP	21	96	5
TAP	21	144	5
TAP	21	192	2
TAP	21	240	3
TAP	21	288	2
TAP	21	336	2
TAP	22	0	3
TAP	22	48	2
TAP	22	96	3
TAP	22	144	2
TAP	22	192	5
TAP	22	240	4
TAP	22	288	5
TAP	22	336	4
TAP	23	0	6
TAP	23	48	7
TAP	23	96	6
TAP	23	144	7
TAP	23	192	6
TAP	23	240	0
TAP	23	288	7
TAP	23	336	1
TAP	24	0	0
TAP	24	48	1
TAP	24	96	0
TAP	24	144	1
TAP	24	192	6
TAP	24	240	0
TAP	24	288	7
TAP	24	336	7
TAP	25	0	6
TAP	25	0	7
TAP	25	96	2
TAP	25	96	3
TAP	25	192	4
TAP	25	192	5
TAP	25	288	0
TAP	25	288	1
TAP	26	0	0
TAP	26	48	1
TAP	26	96	6
TAP	26	144	7
TAP	26	192	6
TAP	26	240	0
TAP	26	288	7
TAP	26	312	0
TAP	26	336	7
TAP	26	360	0
TAP	27	0	7
TAP	27	48	1
TAP	27	96	7
TAP	27	144	1
TAP	27	192	6
TAP	27	240	2
TAP	27	288	6
TAP	27	336	2
TAP	28	0	5
TAP	28	48	3
TAP	28	96	5
TAP	28	144	3
TAP	28	192	4
TAP	28	240	2
TAP	28	288	3
TAP	28	336	3
TAP	29	0	0
TAP	29	48	6
TAP	29	96	0
TAP	29	144	6
TAP	29	192	1
TAP	29	240	5
TAP	29	288	1
TAP	29	336	5
TAP	30	0	2
TAP	30	48	4
TAP	30	96	2
TAP	30	144	4
STR	30	192	3
SI_	30	192	3	96	48	0
TAP	31	0	6
TAP	31	48	6
TAP	31	96	4
TAP	31	144	5
TAP	31	192	4
TAP	31	240	3
TAP	31	288	2
TAP	31	336	2
TAP	32	0	1
TAP	32	48	1
TAP	32	96	3
TAP	32	144	2
TAP	32	192	3
TAP	32	240	3
TAP	32	288	4
TAP	32	336	4
TAP	33	0	4
TAP	33	0	5
TAP	33	96	6
TAP	33	96	7
TAP	33	192	0
TAP	33	192	1
TAP	33	288	2
TAP	33	288	3
TAP	34	0	1
TAP	34	48	5
TAP	34	96	2
TAP	34	144	4
TAP	34	192	3
TAP	34	240	4
TAP	34	288	3
TAP	34	312	4
TAP	34	336	3
TAP	34	360	4
TAP	35	0	3
TAP	35	48	5
TAP	35	96	2
TAP	35	120	3
TAP	35	168	2
TAP	35	168	3
TAP	36	0	4
TAP	36	48	2
TAP	36	96	5
TAP	36	120	4
TAP	36	168	4
TAP	36	168	5
TAP	37	0	3
TAP	37	48	5
TAP	37	96	2
TAP	37	120	3
TAP	37	168	2
TAP	37	168	3
TAP	37	288	1
TAP	37	336	1
TAP	38	0	4
TAP	38	48	2
TAP	38	96	5
TAP	38	120	4
TAP	38	168	4
TAP	38	168	5
TAP	38	240	6
TAP	38	288	6
TAP	38	336	6
TAP	39	0	2
TAP	39	48	5
TAP	39	96	3
TAP	39	120	4
TAP	39	168	4
TAP	39	192	2
TAP	39	240	5
TAP	39	288	3
TAP	39	312	4
TAP	39	360	4
TAP	40	0	1
TAP	40	48	6
TAP	40	96	0
TAP	40	120	7
TAP	40	168	7
TAP	40	192	1
TAP	40	240	6
TAP	40	288	0
TAP	40	312	7
TAP	40	360	7
TAP	41	0	0
TAP	41	48	7
TAP	41	96	6
TAP	41	144	7
TAP	41	192	0
TAP	41	240	7
TAP	41	288	6
TAP	41	336	7
TAP	42	0	0
TAP	42	48	1
TAP	42	96	0
TAP	42	144	7
TAP	42	192	0
TAP	42	240	1
TAP	42	288	0
TAP	42	336	7
TAP	43	0	0
TAP	43	48	7
TAP	43	96	1
TAP	43	144	6
TAP	43	192	2
TAP	43	240	5
TAP	43	288	3
TAP	43	336	4
TAP	44	0	2
TAP	44	48	5
TAP	44	96	1
TAP	44	144	6
TAP	44	192	0
TAP	44	216	7
TAP	44	240	0
TAP	44	264	7
TAP	44	288	0
TAP	44	312	7
TAP	44	336	0
TAP	44	360	7
BRK	45	0	0
TAP	45	48	7
TAP	45	96	0
TAP	45	144	6
TAP	45	192	7
TAP	45	240	6
TAP	45	288	0
TAP	45	336	0
TAP	46	0	7
TAP	46	48	1
TAP	46	96	7
TAP	46	144	2
TAP	46	192	0
TAP	46	240	1
TAP	46	288	2
TAP	46	336	1
TAP	47	0	7
TAP	47	48	0
TAP	47	96	7
TAP	47	144	1
TAP	47	192	0
TAP	47	240	1
TAP	47	288	6
TAP	47	336	6
TAP	48	0	0
TAP	48	48	6
TAP	48	96	0
TAP	48	144	5
STR	48	192	0
SI_	48	192	0	96	48	3
TAP	48	240	4
TAP	48	288	4
TAP	49	0	5
TAP	49	48	4
TAP	49	96	5
TAP	49	144	2
TAP	49	192	3
TAP	49	240	2
TAP	49	288	5
TAP	49	336	2
TAP	50	0	4
TAP	50	48	3
TAP	50	96	4
TAP	50	144	2
TAP	50	192	5
TAP	50	240	4
TAP	50	288	5
TAP	50	336	2
TAP	51	0	4
TAP	51	48	3
TAP	51	96	5
TAP	51	144	2
TAP	51	192	6
TAP	51	240	1
TAP	51	288	7
TAP	51	336	0
TAP	52	0	6
TAP	52	48	1
TAP	52	96	5
TAP	52	144	2
TAP	52	192	4
TAP	52	240	3
TAP	52	288	4
TAP	52	312	3
TAP	52	336	4
TAP	52	360	3
BRK	53	0	4
TAP	53	48	2
TAP	53	72	3
TAP	53	96	2
TAP	53	144	5
TAP	53	168	4
TAP	53	192	5
TAP	53	240	3
TAP	53	288	4
TAP	53	336	2
TAP	54	0	3
TAP	54	48	2
TAP	54	96	5
TAP	54	120	4
TAP	54	144	5
TAP	54	192	2
TAP	54	216	3
TAP	54	240	2
TAP	54	288	4
TAP	54	336	3
TAP	55	0	4
TAP	55	48	2
TAP	55	72	3
TAP	55	96	2
TAP	55	144	5
TAP	55	168	4
TAP	55	192	5
TAP	55	240	3
TAP	55	288	4
TAP	55	336	5
TAP	56	0	4
TAP	56	48	4
TAP	56	96	2
TAP	56	120	3
TAP	56	144	2
TAP	56	192	5
TAP	56	216	4
TAP	56	240	5
TAP	56	288	3
TAP	56	288	4
TAP	56	336	2
TAP	56	336	5
TAP	57	0	1
TAP	57	48	6
TAP	57	72	7
TAP	57	96	6
TAP	57	144	1
TAP	57	168	0
TAP	57	192	1
TAP	57	240	7
TAP	57	288	0
TAP	57	336	1
TAP	58	0	0
TAP	58	48	7
TAP	58	96	1
TAP	58	120	0
TAP	58	144	1
TAP	58	192	6
TAP	58	216	7
TAP	58	240	6
TAP	58	288	0
TAP	58	336	7
TAP	59	0	0
TAP	59	48	1
TAP	59	96	2
TAP	59	144	3
TAP	59	192	4
TAP	59	240	5
TAP	59	288	6
TAP	59	336	7
TAP	60	0	0
TAP	60	48	7
TAP	60	96	1
TAP	60	144	6
TAP	60	192	0
TAP	60	216	7
TAP	60	240	0
TAP	60	264	7
TAP	60	288	0
TAP	60	312	7
TAP	60	336	0
TAP	60	360	7
BRK	61	0	0

T_REC_TAP	481
T_REC_BRK	3
T_REC_XTP	0
T_REC_HLD	0
T_REC_XHO	0
T_REC_STR	4
T_REC_BST	0
T_REC_XST	0
T_REC_TTP	0
T_REC_THO	0
T_REC_SLD	4
T_REC_ALL	492
T_NUM_TAP	485
T_NUM_BRK	3
T_NUM_HLD	0
T_NUM_SLD	4
T_NUM_ALL	492
T_JUDGE_TAP	488
T_JUDGE_HLD	0
T_JUDGE_SLD	4
T_JUDGE_ALL	492
TTM_EACHPAIRS	23
TTM_SCR_TAP	242500
TTM_SCR_BRK	7800
TTM_SCR_HLD	0
TTM_SCR_SLD	6000
TTM_SCR_ALL	256300
TTM_SCR_S	248350
TTM_SCR_SS	256000
TTM_RAT_ACV	10011

