VERSION	0.00.00	1.03.00
FES_MODE	0
BPM_DEF	150.000	150.000	150.000	150.000
MET_DEF	4	4
RESOLUTION	384
CLK_DEF	384
COMPATIBLE_CODE	MA2

BPM	0	0	150.000
MET	0	0	4	4

TAP	1	0	0
TAP	1	0	7
TAP	1	192	0
TAP	1	192	7
TAP	2	0	0
TAP	2	0	7
TAP	2	96	1
TAP	2	96	6
TAP	2	192	2
TAP	2	192	5
BRK	2	288	3
BRK	2	288	4
TAP	3	0	2
TAP	3	96	1
TAP	3	192	0
TAP	3	288	6
TAP	3	288	7
TAP	4	0	5
TAP	4	96	6
TAP	4	192	7
TAP	4	288	0
TAP	4	288	1
TAP	5	0	2
TAP	5	96	3
TAP	5	192	4
TAP	5	288	4
TAP	5	288	5
TAP	6	0	5
TAP	6	96	4
TAP	6	192	3
BRK	6	288	2
BRK	6	288	3
TAP	7	0	1
TAP	7	96	2
TAP	7	192	3
TAP	7	288	0
TAP	7	288	7
TAP	8	0	6
TAP	8	96	5
TAP	8	192	4
TAP	8	288	0
TAP	8	288	7
TAP	9	0	3
TAP	9	96	4
TAP	9	192	3
TAP	9	288	0
TAP	9	288	7
TAP	10	0	6
TAP	10	96	7
TAP	10	192	0
BRK	10	288	0
BRK	10	288	7
TAP	11	0	1
TAP	11	96	0
TAP	11	192	1
TAP	11	288	0
TAP	12	0	2
TAP	12	96	3
TAP	12	192	2
TAP	12	288	3
TAP	13	0	7
TAP	13	96	6
TAP	13	192	7
TAP	13	288	6
TAP	14	0	4
TAP	14	96	5
TAP	14	192	4
TAP	14	192	5
TAP	15	0	2
TAP	15	96	1
TAP	15	192	0
TAP	15	288	7
TAP	16	0	6
TAP	16	96	5
TAP	16	192	4
TAP	16	288	3
TAP	17	0	6
TAP	17	96	6
TAP	17	192	1
TAP	17	288	1
TAP	18	0	7
TAP	18	96	5
TAP	18	192	3
BRK	18	288	1
TAP	19	0	6
STR	19	96	6
SCL	19	96	6	96	72	3
TAP	20	0	1
STR	20	96	1
SCR	20	96	1	96	72	4
TAP	21	0	6
STR	21	96	6
SI_	21	96	6	96	72	2
TAP	22	0	1
STR	22	96	1
SI_	22	96	1	96	72	5
STR	23	0	7
SI_	23	0	7	96	72	4
STR	23	192	0
SI_	23	192	0	96	72	3
STR	24	0	6
SI_	24	0	6	96	72	1
STR	24	192	2
SI_	24	192	2	96	72	5
TAP	25	0	6
TAP	25	96	6
TAP	25	192	1
TAP	25	288	1
TAP	26	0	3
TAP	26	0	4
TAP	26	96	2
TAP	26	96	5
TAP	26	192	1
TAP	26	192	6
BRK	26	288	0
BRK	26	288	7
TAP	27	0	1
TAP	27	96	0
TAP	27	192	1
TAP	27	288	0
TAP	27	288	1
TAP	28	0	2
TAP	28	96	3
TAP	28	192	2
TAP	28	288	0
TAP	28	288	1
TAP	29	0	6
TAP	29	96	7
TAP	29	192	6
TAP	29	288	6
TAP	29	288	7
TAP	30	0	5
TAP	30	96	4
TAP	30	192	4
TAP	30	192	5
TAP	31	0	2
TAP	31	96	3
TAP	31	192	4
TAP	31	288	0
TAP	31	288	7
TAP	32	0	5
TAP	32	96	4
TAP	32	192	3
TAP	32	288	0
TAP	32	288	7
TAP	33	0	0
TAP	33	0	7
TAP	33	192	0
TAP	33	192	7
TAP	34	0	0
TAP	34	0	1
TAP	34	96	2
TAP	34	96	3
TAP	34	192	4
TAP	34	192	5
TAP	34	288	6
TAP	34	288	7
TAP	35	0	0
TAP	35	0	1
TAP	35	288	0
TAP	35	288	7
TAP	36	0	6
TAP	36	0	7
TAP	36	288	4
TAP	36	288	5
TAP	37	0	3
TAP	37	0	4
TAP	37	288	2
TAP	37	288	3
TAP	38	0	0
TAP	38	0	1
TAP	38	288	6
TAP	38	288	7
TAP	39	0	1
TAP	39	96	0
TAP	39	192	6
TAP	39	288	7
TAP	40	0	2
TAP	40	96	3
TAP	40	192	5
TAP	40	288	4
TAP	41	0	2
TAP	41	96	2
TAP	41	192	2
TAP	41	288	2
TAP	42	0	5
TAP	42	96	5
TAP	42	192	5
TAP	42	288	5
TAP	43	0	2
TAP	43	96	3
TAP	43	192	5
TAP	43	288	4
TAP	44	0	5
TAP	44	0	6
TAP	44	96	0
TAP	44	96	7
TAP	44	192	1
TAP	44	192	2
BRK	44	288	3
BRK	44	288	4
TAP	45	0	5
STR	45	96	1
SCR	45	96	1	96	72	4
TAP	46	0	2
STR	46	96	6
SCL	46	96	6	96	72	3
TAP	47	0	6
STR	47	96	0
SI_	47	96	0	96	72	4
TAP	48	0	1
STR	48	96	7
SI_	48	96	7	96	72	3
TAP	49	0	0
TAP	49	96	1
TAP	49	192	2
TAP	49	288	3
TAP	50	0	4
TAP	50	96	5
TAP	50	192	6
TAP	50	288	7
TAP	51	0	0
TAP	51	192	1
TAP	51	192	6
BRK	52	0	7
BRK	52	96	5
BRK	52	192	3
BRK	52	288	1
TAP	53	0	2
TAP	53	96	3
TAP	53	192	4
TAP	53	288	2
TAP	53	288	3
TAP	54	0	5
TAP	54	96	4
TAP	54	192	3
TAP	54	288	4
TAP	54	288	5
TAP	55	0	3
TAP	55	96	4
TAP	55	192	3
TAP	55	288	0
TAP	55	288	7
TAP	56	0	2
TAP	56	0	6
TAP	56	96	1
TAP	56	96	5
TAP	56	192	0
TAP	56	192	4
BRK	56	288	3
BRK	56	288	7
TAP	57	0	1
TAP	57	96	6
STR	57	192	0
SI_	57	192	0	96	48	4
TAP	58	0	5
TAP	58	96	2
TAP	58	192	3
TAP	58	192	4
TAP	59	0	0
TAP	59	0	1
TAP	59	192	6
TAP	59	192	7
TAP	60	0	2
TAP	60	0	3
TAP	60	96	4
TAP	60	96	5
TAP	60	192	6
TAP	60	192	7
TAP	60	288	0
TAP	60	288	1
BRK	61	0	0
BRK	61	0	7

T_REC_TAP	228
T_REC_BRK	19
T_REC_XTP	0
T_REC_HLD	0
T_REC_XHO	0
T_REC_STR	13
T_REC_BST	0
T_REC_XST	0
T_REC_TTP	0
T_REC_THO	0
T_REC_SLD	13
T_REC_ALL	273
T_NUM_TAP	241
T_NUM_BRK	19
T_NUM_HLD	0
T_NUM_SLD	13
T_NUM_ALL	273
T_JUDGE_TAP	260
T_JUDGE_HLD	0
T_JUDGE_SLD	13
T_JUDGE_ALL	273
TTM_EACHPAIRS	59
TTM_SCR_TAP	120500
TTM_SCR_BRK	49400
TTM_SCR_HLD	0
TTM_SCR_SLD	19500
TTM_SCR_ALL	189400
TTM_SCR_S	181900
TTM_SCR_SS	187500
TTM_RAT_ACV	10101

