VERSION	0.00.00	1.03.00
FES_MODE	0
BPM_DEF	150.000	150.000	150.000	150.000
MET_DEF	4	4
RESOLUTION	384
CLK_DEF	384
COMPATIBLE_CODE	MA2

BPM	0	0	150.000
MET	0	0	4	4

TAP	3	0	5
TAP	3	192	4
TAP	4	0	5
TAP	4	192	6
TAP	5	0	5
TAP	5	192	4
TAP	6	0	5
TAP	6	192	6
TAP	6	288	6
TAP	7	0	6
TAP	7	0	7
TAP	7	192	0
TAP	8	0	7
TAP	8	192	6
TAP	9	0	7
TAP	9	192	0
TAP	10	0	7
TAP	10	96	6
TAP	10	192	7
TAP	10	288	0
TAP	11	0	0
TAP	11	192	0
STR	12	0	7
SI_	12	0	7	96	192	4
TAP	13	0	3
TAP	13	192	4
TAP	14	0	3
TAP	14	192	2
TAP	14	288	3
TAP	15	0	4
TAP	15	192	5
TAP	16	0	4
TAP	16	192	3
HLD	17	0	2	576
TAP	19	0	1
TAP	19	192	0
TAP	20	0	7
TAP	20	96	7
TAP	20	192	6
TAP	21	0	6
TAP	21	0	7
TAP	21	192	5
TAP	22	0	4
TAP	22	96	3
TAP	22	192	2
TAP	23	0	2
TAP	23	0	3
TAP	23	192	1
TAP	24	0	2
TAP	24	96	3
TAP	24	192	4
TAP	25	0	4
TAP	25	0	5
TAP	25	192	6
TAP	26	0	7
TAP	26	192	0
TAP	26	192	7
TAP	27	0	1
TAP	27	192	0
TAP	28	0	1
TAP	28	192	0
TAP	29	0	2
TAP	29	192	3
TAP	30	0	2
TAP	30	192	2
TAP	30	192	3
TAP	31	0	4
TAP	31	192	5
TAP	32	0	4
TAP	32	192	5
TAP	33	0	6
TAP	33	192	7
TAP	34	0	6
TAP	34	192	7
BRK	35	0	6
BRK	35	0	7
BRK	36	0	0
BRK	36	0	1
BRK	37	0	2
BRK	37	0	3
BRK	38	0	4
BRK	38	0	5
TAP	39	0	6
TAP	39	192	5
TAP	40	0	4
TAP	40	192	3
TAP	41	0	2
TAP	41	96	2
TAP	41	192	3
TAP	41	288	3
TAP	42	0	4
TAP	42	96	4
TAP	42	192	5
TAP	42	288	5
TAP	43	0	5
TAP	43	0	6
TAP	43	192	3
TAP	43	192	4
TAP	44	0	1
TAP	44	0	2
TAP	44	192	0
TAP	44	192	7
TAP	44	288	0
TAP	44	288	7
BRK	45	0	1
BRK	45	0	6
TAP	46	0	1
TAP	46	96	1
TAP	46	192	1
TAP	46	192	2
TAP	47	0	2
TAP	47	96	2
TAP	47	192	2
TAP	47	192	3
TAP	48	0	3
TAP	48	96	3
TAP	48	192	3
TAP	48	192	4
TAP	49	0	4
TAP	49	96	3
TAP	49	192	2
STR	50	0	1
SI_	50	0	1	96	192	5
HLD	51	0	6	192
TAP	52	0	4
TAP	52	192	2
TAP	53	0	7
TAP	53	96	0
TAP	53	192	7
TAP	54	0	1
TAP	54	96	2
TAP	54	192	1
TAP	55	0	3
TAP	55	96	4
TAP	55	192	3
TAP	56	0	5
TAP	56	96	5
TAP	56	192	4
TAP	56	192	5
TAP	57	0	6
TAP	57	96	7
TAP	57	192	0
TAP	58	0	7
TAP	58	96	0
TAP	58	192	7
TAP	59	0	6
TAP	59	96	5
TAP	59	192	4
TAP	60	0	2
TAP	60	96	1
TAP	60	192	0
BRK	61	0	0
BRK	61	0	7

T_REC_TAP	135
T_REC_BRK	12
T_REC_XTP	0
T_REC_HLD	2
T_REC_XHO	0
T_REC_STR	2
T_REC_BST	0
T_REC_XST	0
T_REC_TTP	0
T_REC_THO	0
T_REC_SLD	2
T_REC_ALL	153
T_NUM_TAP	137
T_NUM_BRK	12
T_NUM_HLD	2
T_NUM_SLD	2
T_NUM_ALL	153
T_JUDGE_TAP	149
T_JUDGE_HLD	16
T_JUDGE_SLD	2
T_JUDGE_ALL	167
TTM_EACHPAIRS	21
TTM_SCR_TAP	68500
TTM_SCR_BRK	31200
TTM_SCR_HLD	2000
TTM_SCR_SLD	3000
TTM_SCR_ALL	104700
TTM_SCR_S	100400
TTM_SCR_SS	103500
TTM_RAT_ACV	10115

