VERSION	0.00.00	1.03.00
FES_MODE	0
BPM_DEF	145.000	145.000	145.000	145.000
MET_DEF	4	4
RESOLUTION	384
CLK_DEF	384
COMPATIBLE_CODE	MA2

BPM	0	0	145.000
MET	0	0	4	4

BST	1	0	0
SCR	1	0	0	96	192	7
BST	1	0	7
SCL	1	0	7	96	192	0
STR	2	0	1
SI_	2	0	1	96	48	4
TAP	2	48	0
TAP	2	96	1
STR	2	192	6
SI_	2	192	6	96	48	3
TAP	2	240	7
TAP	2	288	6
STR	3	0	1
SI_	3	0	1	96	48	4
TAP	3	48	0
TAP	3	96	1
TAP	3	144	5
STR	3	192	7
SI_	3	192	7	96	48	3
TAP	3	240	6
TAP	3	288	7
STR	4	0	2
SI_	4	0	2	96	48	7
TAP	4	48	3
TAP	4	96	2
STR	4	192	5
SI_	4	192	5	96	48	0
TAP	4	240	4
TAP	4	288	5
STR	5	0	2
SI_	5	0	2	96	48	7
TAP	5	48	3
TAP	5	96	2
TAP	5	144	5
STR	5	192	7
SI_	5	192	7	96	48	3
TAP	5	240	6
TAP	5	288	7
STR	6	0	3
SV_	6	0	3	96	48	2
STR	6	0	4
SV_	6	0	4	96	48	5
TAP	6	48	2
TAP	6	48	5
STR	6	96	3
SI_	6	96	3	96	48	0
STR	6	96	4
SI_	6	96	4	96	48	7
STR	7	0	1
SI_	7	0	1	96	48	6
STR	7	0	5
SI_	7	0	5	96	48	2
TAP	7	48	2
TAP	7	48	6
TAP	7	96	1
TAP	7	96	5
TAP	7	192	2
TAP	7	192	6
STR	8	0	0
SF_	8	0	0	96	48	4
TAP	8	48	1
TAP	8	48	7
TAP	8	96	0
TAP	8	192	1
TAP	8	192	5
STR	9	0	7
SF_	9	0	7	96	48	3
TAP	9	48	0
TAP	9	48	6
TAP	9	96	7
TAP	9	192	2
TAP	9	192	6
STR	10	0	6
SI_	10	0	6	96	48	2
TAP	10	48	7
TAP	10	96	6
STR	10	192	1
SI_	10	192	1	96	48	5
TAP	10	240	0
TAP	10	288	1
STR	11	0	3
SI_	11	0	3	96	48	6
STR	11	0	4
SI_	11	0	4	96	48	1
TAP	11	48	2
TAP	11	48	5
TAP	11	96	3
TAP	11	96	4
STR	11	192	0
SI_	11	192	0	96	48	5
STR	11	192	1
SI_	11	192	1	96	48	4
TAP	11	240	2
TAP	11	240	7
TAP	11	288	0
TAP	11	288	1
STR	12	0	4
SXR	12	0	4	96	48	2
STR	12	0	5
SXL	12	0	5	96	48	7
TAP	12	48	3
TAP	12	48	6
TAP	12	96	4
TAP	12	96	5
TAP	12	192	7
TAP	12	240	1
TAP	12	288	3
TAP	12	336	4
TAP	13	0	6
TAP	13	0	7
TAP	13	48	0
TAP	13	48	1
TAP	13	96	2
TAP	13	96	3
TAP	13	144	4
TAP	13	144	5
STR	13	192	6
SI_	13	192	6	96	48	3
STR	13	192	7
SI_	13	192	7	96	48	2
TAP	13	240	0
TAP	13	240	5
BRK	13	288	6
BRK	13	288	7
TAP	14	0	0
TAP	14	0	7
TAP	14	48	1
TAP	14	72	7
TAP	14	96	2
TAP	14	192	0
TAP	14	192	1
TAP	14	240	2
TAP	14	240	7
TAP	14	288	6
TAP	14	288	7
TAP	14	336	0
TAP	14	336	5
STR	15	0	0
SI_	15	0	0	96	48	3
STR	15	48	7
SI_	15	48	7	96	48	4
TAP	15	96	0
TAP	15	144	7
TAP	15	192	6
TAP	15	240	7
TAP	15	288	0
TAP	15	336	1
TAP	16	0	0
HLD	16	0	1	48
TAP	16	48	2
HLD	16	96	6	48
TAP	16	96	7
TAP	16	144	5
TAP	16	192	1
TAP	16	240	0
TAP	16	288	7
TAP	16	336	6
TAP	17	0	2
TAP	17	24	3
TAP	17	72	5
TAP	17	96	4
TAP	17	144	0
STR	17	192	0
SI_	17	192	0	96	48	5
STR	17	192	7
SI_	17	192	7	96	48	2
TAP	17	240	1
TAP	17	240	6
BRK	17	288	0
BRK	17	288	7
STR	18	0	5
SI_	18	0	5	96	48	1
TAP	18	48	4
TAP	18	96	5
STR	18	192	2
SI_	18	192	2	96	48	6
TAP	18	240	3
TAP	18	288	2
STR	19	0	0
SI_	19	0	0	96	48	4
STR	19	0	7
SI_	19	0	7	96	48	3
TAP	19	48	1
TAP	19	48	6
TAP	19	96	0
TAP	19	96	7
STR	19	192	2
SI_	19	192	2	96	48	7
STR	19	192	3
SI_	19	192	3	96	48	6
TAP	19	240	1
TAP	19	240	4
TAP	19	288	2
TAP	19	288	3
STR	20	0	6
SXR	20	0	6	96	48	4
STR	20	0	7
SXL	20	0	7	96	48	1
TAP	20	48	0
TAP	20	48	5
TAP	20	96	6
TAP	20	96	7
TAP	20	192	4
TAP	20	240	2
TAP	20	288	0
TAP	20	336	7
TAP	21	0	4
TAP	21	0	5
TAP	21	48	2
TAP	21	48	3
TAP	21	96	0
TAP	21	96	1
TAP	21	144	6
TAP	21	144	7
STR	21	192	4
SI_	21	192	4	96	48	1
STR	21	192	5
SI_	21	192	5	96	48	0
TAP	21	240	3
TAP	21	240	6
BRK	21	288	4
BRK	21	288	5
TAP	22	0	3
TAP	22	0	4
TAP	22	48	2
TAP	22	72	4
TAP	22	96	3
TAP	22	192	2
TAP	22	192	3
TAP	22	240	1
TAP	22	240	4
TAP	22	288	4
TAP	22	288	5
TAP	22	336	3
TAP	22	336	6
STR	23	0	3
SI_	23	0	3	96	48	0
STR	23	48	4
SI_	23	48	4	96	48	7
TAP	23	96	3
TAP	23	144	4
TAP	23	192	5
TAP	23	240	4
TAP	23	288	3
TAP	23	336	2
HLD	24	0	2	48
TAP	24	0	3
TAP	24	48	1
TAP	24	96	4
HLD	24	96	5	48
TAP	24	144	6
TAP	24	192	2
TAP	24	240	3
TAP	24	288	4
TAP	24	336	5
TAP	25	0	1
TAP	25	24	0
TAP	25	72	6
TAP	25	96	7
TAP	25	144	3
STR	25	192	3
SI_	25	192	3	96	48	6
STR	25	192	4
SI_	25	192	4	96	48	1
TAP	25	240	2
TAP	25	240	5
BRK	25	288	3
BRK	25	288	4
STR	26	0	7
SCR	26	0	7	96	96	3
TAP	26	48	7
STR	26	96	3
SCR	26	96	3	96	96	7
TAP	26	144	3
TAP	26	192	7
STR	26	288	0
SCL	26	288	0	96	96	4
TAP	26	336	0
STR	27	0	4
SCL	27	0	4	96	96	0
TAP	27	48	4
TAP	27	96	0
TAP	27	192	7
TAP	27	288	7
STR	28	0	6
SCR	28	0	6	96	96	2
TAP	28	48	6
STR	28	96	2
SCR	28	96	2	96	96	6
TAP	28	144	2
TAP	28	192	6
STR	28	288	1
SCL	28	288	1	96	96	5
TAP	28	336	1
STR	29	0	5
SCL	29	0	5	96	96	1
TAP	29	48	5
TAP	29	96	1
TAP	29	192	0
TAP	29	288	0
STR	30	0	3
SXL	30	0	3	96	96	3
SXR	30	0	3	96	96	3
TAP	30	96	3
TAP	30	288	0
TAP	30	288	1
STR	31	0	4
SXL	31	0	4	96	96	4
SXR	31	0	4	96	96	4
TAP	31	96	4
TAP	31	288	6
TAP	31	288	7
STR	32	0	3
SXR	32	0	3	96	96	4
TAP	32	0	4
TAP	32	96	3
STR	32	96	4
SXL	32	96	4	96	96	3
BRK	33	0	3
BRK	33	96	2
BRK	33	192	0
BRK	33	192	1
TAP	33	240	2
TAP	33	288	3
TAP	33	288	7
STR	34	0	3
SCL	34	0	3	96	48	0
STR	34	0	7
SCL	34	0	7	96	48	4
TAP	34	96	3
TAP	34	96	7
STR	34	192	3
SV_	34	192	3	96	48	5
STR	34	192	7
SV_	34	192	7	96	48	1
TAP	34	240	3
TAP	34	240	7
TAP	34	288	3
TAP	34	288	7
TAP	35	0	0
TAP	35	48	3
TAP	35	96	6
STR	35	144	2
SCL	35	144	2	96	48	7
STR	35	192	5
SCR	35	192	5	96	48	0
BRK	35	240	2
BRK	35	288	5
STR	36	0	0
SI_	36	0	0	96	48	4
STR	36	0	7
SI_	36	0	7	96	48	3
STR	36	96	0
SCR	36	96	0	96	48	2
STR	36	96	7
SCL	36	96	7	96	48	5
TAP	36	192	0
BST	36	192	7
SF_	36	192	7	96	48	3
TAP	36	288	7
BST	37	0	0
SI_	37	0	0	96	48	2
BST	37	48	7
SI_	37	48	7	96	48	5
BST	37	96	0
SI_	37	96	0	96	48	4
BST	37	144	7
SI_	37	144	7	96	24	3
BST	37	192	0
SCL	37	192	0	96	48	4
BRK	37	240	7
BRK	37	288	0
TAP	38	0	7
TAP	38	48	0
TAP	38	48	6
TAP	38	96	0
TAP	38	144	1
TAP	38	144	7
TAP	38	192	2
TAP	38	240	3
STR	38	288	2
SXR	38	288	2	96	96	4
STR	38	288	5
SXL	38	288	5	96	96	3
TAP	39	192	1
TAP	39	240	3
TAP	39	288	2
TAP	39	336	0
TAP	40	0	1
TAP	40	0	6
TAP	40	96	2
TAP	40	96	4
HLD	40	192	1	48
TAP	40	240	2
HLD	40	288	6	48
TAP	40	336	5
TAP	41	0	0
TAP	41	0	1
TAP	41	48	6
TAP	41	48	7
TAP	41	96	0
TAP	41	144	7
TAP	41	192	0
TAP	41	192	7
TAP	41	240	0
TAP	41	240	7
BRK	41	288	1
BRK	41	288	6
HLD	42	0	3	384
TAP	42	0	4
TAP	42	96	2
TAP	42	192	1
TAP	42	288	0
TAP	43	0	5
TAP	43	48	4
TAP	43	96	5
TAP	43	144	3
TAP	43	192	3
HLD	43	192	4	576
TAP	43	288	5
TAP	44	0	6
TAP	44	96	7
TAP	44	192	0
TAP	44	288	2
TAP	45	0	1
TAP	45	48	4
TAP	45	96	1
TAP	45	144	0
TAP	45	192	0
TAP	45	192	1
TAP	45	288	2
TAP	45	288	3
TAP	46	0	1
TAP	46	0	2
TAP	46	48	1
TAP	46	48	2
TAP	46	96	1
TAP	46	96	2
TAP	46	192	6
TAP	46	192	7
TAP	46	288	4
TAP	46	288	5
TAP	47	0	5
TAP	47	0	6
TAP	47	48	5
TAP	47	48	6
TAP	47	96	5
TAP	47	96	6
TAP	47	192	5
TAP	47	192	6
TAP	47	288	4
TAP	47	288	5
TAP	48	0	3
TAP	48	0	4
TAP	48	96	2
TAP	48	96	3
TAP	48	192	3
TAP	48	192	4
TAP	48	288	4
TAP	48	288	5
TAP	49	0	4
TAP	49	0	5
TAP	49	48	3
TAP	49	48	4
TAP	49	96	2
TAP	49	96	3
TAP	49	144	3
TAP	49	144	4
HLD	49	192	4	48
HLD	49	240	3	48
HLD	49	288	2	48
TAP	50	0	0
TAP	50	0	2
TAP	50	96	2
TAP	50	96	4
TAP	50	192	2
TAP	50	192	7
TAP	50	288	2
TAP	50	288	5
TAP	51	0	0
TAP	51	0	2
TAP	51	48	2
TAP	51	96	2
TAP	51	96	4
TAP	51	144	2
TAP	51	192	2
TAP	51	192	7
TAP	51	240	2
TAP	51	288	2
TAP	51	288	5
TAP	52	0	3
TAP	52	0	5
TAP	52	96	5
TAP	52	96	7
TAP	52	192	2
TAP	52	192	5
TAP	52	288	0
TAP	52	288	5
TAP	53	0	3
TAP	53	0	5
TAP	53	48	5
TAP	53	96	5
TAP	53	96	7
TAP	53	144	5
TAP	53	192	1
TAP	53	192	5
TAP	53	240	5
STR	53	288	4
SI_	53	288	4	96	48	1
TAP	53	288	5
TAP	54	0	4
BRK	54	0	5
TAP	54	192	2
TAP	54	240	2
STR	54	288	3
SI_	54	288	3	96	48	6
BRK	55	0	2
TAP	55	0	3
STR	55	192	3
SV_	55	192	3	96	48	2
STR	55	192	4
SV_	55	192	4	96	48	5
TAP	55	240	2
TAP	55	240	5
STR	55	288	3
SI_	55	288	3	96	48	0
STR	55	288	4
SI_	55	288	4	96	48	7
TAP	56	96	2
TAP	56	144	3
TAP	56	192	5
TAP	56	240	4
TAP	56	288	0
TAP	56	288	5
TAP	56	336	2
TAP	56	336	7
TAP	57	0	2
TAP	57	24	3
TAP	57	72	5
TAP	57	96	4
TAP	57	144	7
BRK	57	192	1
BRK	57	192	6
BRK	57	240	0
BRK	57	240	3
BRK	57	288	1
BRK	57	288	6
STR	58	0	0
SCR	58	0	0	96	48	3
STR	58	0	4
SCR	58	0	4	96	48	7
TAP	58	96	0
TAP	58	96	4
STR	58	192	0
SV_	58	192	0	96	48	6
STR	58	192	4
SV_	58	192	4	96	48	2
TAP	58	240	0
TAP	58	240	4
TAP	58	288	0
TAP	58	288	4
TAP	59	0	3
TAP	59	48	0
TAP	59	96	5
STR	59	144	5
SCR	59	144	5	96	48	0
STR	59	192	2
SCL	59	192	2	96	48	7
BRK	59	240	5
BRK	59	288	2
STR	60	0	0
SI_	60	0	0	96	48	4
STR	60	0	7
SI_	60	0	7	96	48	3
STR	60	96	0
SCR	60	96	0	96	48	2
STR	60	96	7
SCL	60	96	7	96	48	5
BST	60	192	0
SF_	60	192	0	96	48	4
TAP	60	192	7
TAP	60	288	0
BST	61	0	7
SI_	61	0	7	96	48	5
BST	61	48	0
SI_	61	48	0	96	48	2
BST	61	96	7
SI_	61	96	7	96	48	3
BST	61	144	0
SI_	61	144	0	96	24	4
BST	61	192	7
SCR	61	192	7	96	48	3
BRK	61	240	0
BRK	61	288	7
TAP	62	0	0
TAP	62	48	1
TAP	62	48	7
TAP	62	96	7
TAP	62	144	0
TAP	62	144	6
TAP	62	192	5
TAP	62	240	4
STR	62	288	2
SXR	62	288	2	96	96	4
STR	62	288	5
SXL	62	288	5	96	96	3
TAP	63	192	0
TAP	63	192	2
TAP	63	240	5
TAP	63	240	7
TAP	63	288	2
TAP	63	288	3
TAP	63	336	0
TAP	63	336	7
TAP	64	0	1
TAP	64	0	6
TAP	64	48	5
TAP	64	96	0
HLD	64	192	1	48
TAP	64	240	2
HLD	64	288	6	48
TAP	64	336	5
TAP	65	0	4
TAP	65	48	2
TAP	65	96	0
TAP	65	144	7
TAP	65	192	0
TAP	65	216	7
TAP	65	240	0
TAP	65	264	7
TAP	65	288	0
TAP	65	312	7
TAP	65	336	0
TAP	65	360	7
TAP	66	0	1
TAP	66	0	6
TAP	66	96	1
TAP	66	96	6
TAP	66	192	1
TAP	66	240	2
TAP	66	288	3
TAP	66	336	4
TAP	66	336	5
TAP	67	0	4
TAP	67	24	5
TAP	67	48	3
TAP	67	72	4
TAP	67	96	2
TAP	67	144	3
TAP	67	168	2
TAP	67	192	4
TAP	67	216	3
STR	67	240	5
SI_	67	240	5	96	48	7
BST	68	0	0
SF_	68	0	0	96	576	4
TAP	70	32	1
TAP	70	32	6
TAP	70	48	2
TAP	70	48	5
TAP	70	64	3
TAP	70	64	4

T_REC_TAP	413
T_REC_BRK	30
T_REC_XTP	0
T_REC_HLD	13
T_REC_XHO	0
T_REC_STR	87
T_REC_BST	15
T_REC_XST	0
T_REC_TTP	0
T_REC_THO	0
T_REC_SLD	104
T_REC_ALL	662
T_NUM_TAP	500
T_NUM_BRK	45
T_NUM_HLD	13
T_NUM_SLD	104
T_NUM_ALL	662
T_JUDGE_TAP	545
T_JUDGE_HLD	31
T_JUDGE_SLD	104
T_JUDGE_ALL	680
TTM_EACHPAIRS	158
TTM_SCR_TAP	250000
TTM_SCR_BRK	117000
TTM_SCR_HLD	13000
TTM_SCR_SLD	156000
TTM_SCR_ALL	536000
TTM_SCR_S	515600
TTM_SCR_SS	531500
TTM_RAT_ACV	10084

