VERSION	0.00.00	1.03.00
FES_MODE	0
BPM_DEF	145.000	145.000	145.000	145.000
MET_DEF	4	4
RESOLUTION	384
CLK_DEF	384
COMPATIBLE_CODE	MA2

BPM	0	0	145.000
MET	0	0	4	4

HLD	1	0	0	288
STR	1	288	7
SI_	1	288	7	96	48	4
TAP	2	0	0
TAP	2	48	1
TAP	2	96	3
TAP	2	192	4
TAP	2	240	2
TAP	2	288	1
TAP	3	0	7
TAP	3	48	5
TAP	3	96	4
TAP	3	192	3
TAP	3	240	5
TAP	3	288	6
TAP	4	0	0
TAP	4	48	4
TAP	4	96	3
TAP	4	192	6
TAP	4	240	2
TAP	4	288	5
TAP	5	0	1
TAP	5	48	5
TAP	5	96	2
TAP	5	192	7
TAP	5	240	5
STR	5	288	3
SI_	5	288	3	96	48	7
TAP	6	0	4
TAP	6	48	6
TAP	6	96	7
TAP	6	192	0
TAP	6	240	6
TAP	6	288	5
TAP	7	0	3
TAP	7	48	1
TAP	7	96	0
TAP	7	192	7
TAP	7	240	1
TAP	7	288	2
TAP	8	0	4
TAP	8	48	0
TAP	8	96	7
TAP	8	192	1
TAP	8	240	5
TAP	8	288	2
TAP	9	0	6
TAP	9	48	2
TAP	9	96	5
TAP	9	192	0
TAP	9	240	4
TAP	9	288	2
TAP	10	0	4
TAP	10	0	5
TAP	10	48	3
TAP	10	96	2
TAP	10	192	0
TAP	10	192	1
TAP	10	240	2
TAP	10	288	3
TAP	11	0	6
TAP	11	0	7
TAP	11	48	4
STR	11	96	2
SI_	11	96	2	96	48	7
BRK	11	288	0
TAP	12	0	0
TAP	12	0	1
TAP	12	48	2
TAP	12	96	3
TAP	12	192	4
TAP	12	192	5
TAP	12	240	3
TAP	12	288	2
TAP	13	0	0
TAP	13	0	1
TAP	13	48	2
TAP	13	72	3
TAP	13	96	2
TAP	13	144	1
HLD	13	192	0	96
BRK	13	288	7
TAP	14	0	1
TAP	14	0	2
TAP	14	48	3
TAP	14	96	4
TAP	14	192	0
TAP	14	192	1
TAP	14	240	7
TAP	14	288	6
TAP	15	0	2
TAP	15	0	3
TAP	15	48	4
TAP	15	96	5
STR	15	144	6
SI_	15	144	6	96	48	2
TAP	15	240	7
TAP	15	288	5
TAP	15	336	3
TAP	16	0	1
TAP	16	48	1
TAP	16	96	7
TAP	16	144	7
TAP	16	192	0
TAP	16	240	2
TAP	16	288	4
TAP	16	336	6
TAP	17	0	7
HLD	17	48	7	192
BRK	17	288	0
BRK	17	288	7
TAP	18	0	2
TAP	18	0	3
TAP	18	48	4
TAP	18	96	5
TAP	18	192	6
TAP	18	192	7
TAP	18	240	5
TAP	18	288	4
TAP	19	0	0
TAP	19	0	1
TAP	19	48	3
STR	19	96	5
SI_	19	96	5	96	48	0
BRK	19	288	7
TAP	20	0	6
TAP	20	0	7
TAP	20	48	5
TAP	20	96	4
TAP	20	192	2
TAP	20	192	3
TAP	20	240	4
TAP	20	288	5
TAP	21	0	6
TAP	21	0	7
TAP	21	48	5
TAP	21	72	4
TAP	21	96	5
TAP	21	144	6
HLD	21	192	7	96
BRK	21	288	0
TAP	22	0	5
TAP	22	0	6
TAP	22	48	4
TAP	22	96	3
TAP	22	192	6
TAP	22	192	7
TAP	22	240	0
TAP	22	288	1
TAP	23	0	4
TAP	23	0	5
TAP	23	48	3
TAP	23	96	2
STR	23	144	1
SI_	23	144	1	96	48	5
TAP	23	240	0
TAP	23	288	2
TAP	23	336	4
TAP	24	0	6
TAP	24	48	6
TAP	24	96	0
TAP	24	144	0
TAP	24	192	7
TAP	24	240	5
TAP	24	288	3
TAP	24	336	1
TAP	25	0	0
TAP	25	48	0
TAP	25	96	0
TAP	25	96	7
TAP	25	192	1
TAP	25	192	2
TAP	25	240	1
TAP	25	240	2
TAP	25	288	2
TAP	25	288	3
TAP	25	336	2
TAP	25	336	3
STR	26	0	4
SCL	26	0	4	96	48	1
TAP	26	144	0
HLD	26	192	0	96
TAP	26	288	7
TAP	26	336	6
TAP	27	0	5
TAP	27	48	4
STR	27	96	3
SI_	27	96	3	96	48	7
STR	27	192	2
SI_	27	192	2	96	48	6
TAP	28	0	7
TAP	28	48	0
TAP	28	96	1
TAP	28	144	2
HLD	28	192	3	96
TAP	28	288	0
TAP	28	336	7
TAP	29	0	6
TAP	29	48	5
STR	29	96	4
SI_	29	96	4	96	48	0
STR	29	192	3
SI_	29	192	3	96	48	7
BRK	29	288	0
TAP	30	0	1
TAP	30	48	1
TAP	30	96	2
TAP	30	144	2
HLD	30	192	3	96
TAP	30	288	0
TAP	30	336	7
TAP	31	0	6
TAP	31	48	5
TAP	31	96	4
TAP	31	144	3
STR	31	192	2
SI_	31	192	2	96	48	6
HLD	32	0	7	192
TAP	32	96	0
TAP	32	144	0
HLD	32	192	0	96
TAP	32	288	1
BRK	33	0	0
BRK	33	0	7
BRK	33	96	0
BRK	33	96	4
BRK	33	192	2
BRK	33	192	6
TAP	34	0	2
TAP	34	0	6
TAP	34	48	5
TAP	34	96	0
TAP	34	96	4
TAP	34	144	1
STR	34	192	6
SCL	34	192	6	96	48	3
TAP	34	240	3
HLD	34	288	1	96
TAP	35	0	0
TAP	35	48	1
TAP	35	48	2
TAP	35	96	0
TAP	35	144	7
TAP	35	192	0
TAP	35	192	1
TAP	35	240	2
TAP	35	240	3
TAP	35	288	4
TAP	35	288	5
STR	36	0	7
SI_	36	0	7	96	192	3
STR	36	192	5
SI_	36	192	5	96	192	1
STR	37	0	3
SI_	37	0	3	96	192	7
TAP	37	240	0
BRK	37	288	0
TAP	38	0	0
TAP	38	0	6
TAP	38	48	5
TAP	38	96	4
TAP	38	96	7
TAP	38	144	3
STR	38	192	7
SCR	38	192	7	96	48	2
TAP	38	240	2
TAP	38	288	3
TAP	38	336	4
HLD	39	0	5	96
TAP	39	96	6
TAP	39	144	7
TAP	39	192	4
TAP	39	240	2
STR	39	288	0
SI_	39	288	0	96	48	3
TAP	40	192	3
TAP	40	192	7
TAP	40	240	2
TAP	40	240	6
TAP	40	288	1
TAP	40	288	5
TAP	40	336	0
TAP	40	336	4
HLD	41	0	3	288
HLD	41	0	7	288
HLD	42	0	1	192
TAP	42	144	0
TAP	42	192	0
TAP	42	288	0
TAP	42	288	7
HLD	43	0	6	192
TAP	43	144	5
TAP	43	192	5
TAP	43	288	0
TAP	43	288	7
HLD	44	0	2	192
TAP	44	144	3
TAP	44	192	3
TAP	44	288	0
TAP	44	288	7
HLD	45	0	5	192
TAP	45	144	4
TAP	45	192	4
TAP	45	288	0
TAP	45	288	7
HLD	46	0	3	192
TAP	46	144	4
TAP	46	192	4
TAP	46	288	4
TAP	46	288	5
HLD	47	0	4	192
TAP	47	144	3
TAP	47	192	3
TAP	47	288	2
TAP	47	288	3
HLD	48	0	4	96
HLD	48	96	5	96
HLD	48	192	6	96
HLD	48	288	7	96
HLD	49	0	0	288
BRK	49	288	1
TAP	50	0	0
TAP	50	48	0
TAP	50	96	5
TAP	50	144	5
TAP	50	192	3
TAP	50	240	3
TAP	50	288	1
TAP	50	336	1
TAP	51	0	5
TAP	51	48	5
TAP	51	96	2
TAP	51	144	2
TAP	51	192	7
TAP	51	240	7
TAP	51	288	1
TAP	51	336	1
TAP	52	0	5
TAP	52	48	5
TAP	52	96	2
TAP	52	144	2
TAP	52	192	6
TAP	52	240	6
TAP	52	288	0
TAP	52	336	0
TAP	53	0	4
TAP	53	48	4
TAP	53	96	1
TAP	53	144	1
HLD	53	192	6	96
TAP	53	288	4
HLD	54	0	1	96
HLD	54	0	3	96
HLD	54	192	4	96
TAP	54	288	6
HLD	55	0	1	96
HLD	55	0	7	96
HLD	55	192	4	96
TAP	55	288	3
HLD	56	0	0	288
HLD	56	0	2	288
TAP	57	0	0
TAP	57	24	0
TAP	57	72	1
TAP	57	96	2
TAP	57	144	1
BRK	57	192	0
BRK	57	192	7
BRK	57	240	6
BRK	57	240	7
BRK	57	288	4
BRK	57	288	5
STR	58	0	7
SI_	58	0	7	96	48	3
TAP	58	96	0
STR	58	192	1
SI_	58	192	1	96	48	5
TAP	58	240	1
STR	59	0	6
SI_	59	0	6	96	48	2
TAP	59	96	7
STR	59	192	0
SI_	59	192	0	96	48	4
TAP	59	240	0
STR	59	288	5
SI_	59	288	5	96	48	1
HLD	60	96	2	96
HLD	60	192	3	96
HLD	60	288	4	96
TAP	61	0	3
TAP	61	48	2
TAP	61	96	1
TAP	61	144	0
HLD	61	192	7	96
TAP	61	240	0
BRK	61	288	0
TAP	62	0	0
STR	62	0	1
SI_	62	0	1	96	48	5
BRK	62	96	7
STR	62	192	7
SI_	62	192	7	96	48	3
TAP	62	240	7
BRK	62	288	0
TAP	62	336	0
TAP	63	0	1
STR	63	0	3
SI_	63	0	3	96	48	0
BRK	63	96	7
STR	63	192	6
SI_	63	192	6	96	48	3
TAP	63	240	6
BRK	63	288	0
STR	64	0	0
SI_	64	0	0	96	48	4
TAP	64	0	3
TAP	64	48	5
BRK	64	96	7
STR	64	192	7
SI_	64	192	7	96	48	3
TAP	64	240	7
BRK	64	288	0
HLD	65	0	1	96
HLD	65	0	2	96
TAP	65	192	2
TAP	65	192	3
STR	65	288	6
SI_	65	288	6	96	96	3
STR	65	288	7
SI_	65	288	7	96	96	2
TAP	66	192	1
TAP	66	240	2
TAP	66	288	3
TAP	66	336	4
TAP	67	0	6
TAP	67	24	7
TAP	67	48	6
TAP	67	72	7
TAP	67	96	6
TAP	67	144	5
TAP	67	168	4
TAP	67	192	3
TAP	67	216	2
TAP	67	240	1
STR	67	288	0
SI_	67	288	0	96	96	3
STR	67	288	7
SI_	67	288	7	96	96	4

T_REC_TAP	315
T_REC_BRK	28
T_REC_XTP	0
T_REC_HLD	39
T_REC_XHO	0
T_REC_STR	33
T_REC_BST	0
T_REC_XST	0
T_REC_TTP	0
T_REC_THO	0
T_REC_SLD	33
T_REC_ALL	448
T_NUM_TAP	348
T_NUM_BRK	28
T_NUM_HLD	39
T_NUM_SLD	33
T_NUM_ALL	448
T_JUDGE_TAP	376
T_JUDGE_HLD	118
T_JUDGE_SLD	33
T_JUDGE_ALL	527
TTM_EACHPAIRS	59
TTM_SCR_TAP	174000
TTM_SCR_BRK	72800
TTM_SCR_HLD	39000
TTM_SCR_SLD	49500
TTM_SCR_ALL	335300
TTM_SCR_S	322550
TTM_SCR_SS	332500
TTM_RAT_ACV	10084

