VERSION	0.00.00	1.03.00
FES_MODE	0
BPM_DEF	145.000	145.000	145.000	145.000
MET_DEF	4	4
RESOLUTION	384
CLK_DEF	384
COMPATIBLE_CODE	MA2

BPM	0	0	145.000
MET	0	0	4	4

HLD	2	0	4	96
HLD	2	192	3	96
HLD	3	0	5	96
HLD	3	192	2	96
HLD	4	0	4	96
HLD	4	192	3	96
STR	5	0	2
SI_	5	0	2	96	96	5
STR	6	96	3
SCR	6	96	3	96	96	6
STR	6	96	4
SCL	6	96	4	96	96	1
BRK	7	192	2
BRK	7	192	6
TAP	10	0	7
TAP	10	192	1
TAP	11	0	5
TAP	11	192	3
TAP	11	192	4
TAP	11	288	3
TAP	11	288	4
TAP	12	0	1
TAP	12	192	3
TAP	12	192	4
TAP	13	0	1
HLD	13	0	5	288
TAP	13	96	0
TAP	13	192	7
TAP	13	288	0
TAP	14	0	2
TAP	14	0	5
TAP	14	192	1
TAP	14	192	6
TAP	15	0	3
TAP	15	0	4
STR	15	96	0
SI_	15	96	0	96	48	5
STR	15	96	7
SI_	15	96	7	96	48	2
TAP	16	0	0
TAP	16	0	7
TAP	16	96	1
TAP	16	96	6
TAP	16	192	0
TAP	16	192	7
STR	16	288	1
SCR	16	288	1	96	192	4
TAP	16	288	6
TAP	18	0	4
TAP	18	0	5
TAP	18	96	3
TAP	18	96	4
TAP	18	192	2
TAP	18	192	3
TAP	18	288	3
TAP	18	288	4
TAP	19	0	1
TAP	19	96	1
TAP	19	192	4
TAP	19	240	3
TAP	19	288	4
HLD	20	0	2	96
HLD	20	0	5	96
TAP	20	192	2
TAP	20	192	5
HLD	21	0	0	96
HLD	21	0	6	96
TAP	21	192	3
TAP	21	192	4
TAP	21	288	1
TAP	21	288	2
TAP	22	0	5
TAP	22	96	3
TAP	22	192	1
TAP	22	288	3
TAP	23	0	2
TAP	23	0	5
TAP	23	96	3
TAP	23	96	4
TAP	23	192	1
TAP	23	192	6
TAP	23	288	0
TAP	23	288	7
STR	24	0	1
SI_	24	0	1	96	48	5
STR	24	192	6
SI_	24	192	6	96	48	1
STR	25	0	2
SCR	25	0	2	96	96	5
STR	26	0	0
SI_	26	0	0	96	96	3
STR	26	288	7
SI_	26	288	7	96	96	4
BRK	27	192	7
BRK	27	288	7
STR	28	0	0
SI_	28	0	0	96	96	3
STR	28	288	7
SI_	28	288	7	96	96	4
HLD	29	192	2	96
HLD	29	192	6	96
HLD	30	0	4	96
TAP	30	0	5
HLD	30	96	3	96
TAP	30	192	2
TAP	31	0	2
HLD	31	0	3	96
HLD	31	96	4	96
TAP	31	192	5
STR	32	0	3
SI_	32	0	3	96	96	0
STR	32	0	4
SI_	32	0	4	96	96	7
STR	33	0	2
SCL	33	0	2	96	96	7
STR	33	0	3
SCR	33	0	3	96	96	6
TAP	34	0	1
TAP	34	0	5
STR	34	96	3
SCL	34	96	3	96	96	0
STR	34	96	7
SCL	34	96	7	96	96	4
TAP	35	0	3
TAP	35	48	4
TAP	35	96	3
TAP	35	192	3
TAP	35	192	4
BRK	35	288	3
BRK	35	288	4
TAP	36	96	4
TAP	36	96	5
HLD	36	192	0	96
HLD	36	192	2	96
HLD	37	0	5	192
TAP	37	0	7
TAP	37	96	1
TAP	37	192	6
TAP	38	0	1
TAP	38	96	1
TAP	38	192	0
TAP	38	288	0
TAP	39	0	3
TAP	39	0	4
STR	39	96	5
SI_	39	96	5	96	96	2
STR	40	192	3
SCL	40	192	3	96	96	0
STR	40	192	4
SCR	40	192	4	96	96	7
TAP	42	0	3
TAP	42	96	4
TAP	42	96	6
TAP	42	192	4
TAP	42	288	1
TAP	42	288	3
TAP	43	0	7
TAP	43	192	6
TAP	43	288	7
TAP	44	0	5
TAP	44	96	3
TAP	44	192	1
TAP	44	288	7
TAP	45	0	0
TAP	45	0	7
TAP	45	192	6
STR	45	288	6
SI_	45	288	6	96	96	1
STR	46	96	2
SI_	46	96	2	96	96	5
STR	46	288	6
SI_	46	288	6	96	96	1
HLD	47	192	2	96
HLD	47	192	5	96
HLD	48	0	1	96
HLD	48	0	6	96
STR	48	192	0
SI_	48	192	0	96	192	3
STR	48	192	7
SI_	48	192	7	96	192	4
TAP	50	0	0
TAP	50	0	6
TAP	50	192	1
TAP	50	192	7
HLD	51	0	0	192
HLD	51	0	6	192
TAP	52	0	1
HLD	52	96	5	288
TAP	52	192	0
TAP	52	288	1
TAP	53	0	2
TAP	53	192	3
TAP	53	192	4
HLD	54	0	2	96
TAP	54	96	3
TAP	54	192	2
TAP	54	192	3
HLD	55	0	5	96
TAP	55	96	4
TAP	55	192	4
TAP	55	192	5
HLD	56	0	2	96
TAP	56	96	3
TAP	56	192	2
TAP	56	192	3
TAP	57	0	6
TAP	57	96	4
TAP	57	192	2
BRK	57	288	0
TAP	58	0	1
TAP	58	0	5
STR	58	96	3
SCL	58	96	3	96	96	0
STR	58	96	7
SCL	58	96	7	96	96	4
TAP	59	0	3
TAP	59	48	4
TAP	59	96	3
TAP	59	192	3
TAP	59	192	4
BRK	59	288	3
BRK	59	288	4
TAP	60	96	4
TAP	60	96	5
HLD	60	192	0	96
HLD	60	192	2	96
HLD	61	0	5	192
TAP	61	0	7
TAP	61	96	1
TAP	61	192	6
TAP	62	0	1
TAP	62	96	1
TAP	62	192	0
TAP	62	288	0
TAP	63	0	3
TAP	63	0	4
STR	63	96	5
SI_	63	96	5	96	96	2
TAP	63	96	6
STR	64	192	3
SCL	64	192	3	96	96	0
STR	64	192	4
SCR	64	192	4	96	96	7
TAP	65	192	2
TAP	65	192	5
BRK	66	0	0
BRK	66	0	7
STR	66	192	7
SCR	66	192	7	96	288	2
STR	66	240	7
SI_	66	240	7	96	240	2
STR	67	288	0
SI_	67	288	0	96	384	3
STR	67	288	7
SI_	67	288	7	96	384	4

T_REC_TAP	139
T_REC_BRK	11
T_REC_XTP	0
T_REC_HLD	33
T_REC_XHO	0
T_REC_STR	36
T_REC_BST	0
T_REC_XST	0
T_REC_TTP	0
T_REC_THO	0
T_REC_SLD	36
T_REC_ALL	255
T_NUM_TAP	175
T_NUM_BRK	11
T_NUM_HLD	33
T_NUM_SLD	36
T_NUM_ALL	255
T_JUDGE_TAP	186
T_JUDGE_HLD	82
T_JUDGE_SLD	36
T_JUDGE_ALL	304
TTM_EACHPAIRS	67
TTM_SCR_TAP	87500
TTM_SCR_BRK	28600
TTM_SCR_HLD	33000
TTM_SCR_SLD	54000
TTM_SCR_ALL	203100
TTM_SCR_S	195950
TTM_SCR_SS	202000
TTM_RAT_ACV	10054

