VERSION	0.00.00	1.03.00
FES_MODE	0
BPM_DEF	145.000	145.000	145.000	145.000
MET_DEF	4	4
RESOLUTION	384
CLK_DEF	384
COMPATIBLE_CODE	MA2

BPM	0	0	145.000
MET	0	0	4	4

TAP	2	0	6
TAP	2	192	1
TAP	3	0	6
TAP	3	192	1
HLD	4	0	6	96
HLD	4	192	1	96
HLD	5	0	6	96
HLD	5	192	1	96
HLD	5	383	6	193
TAP	6	192	4
HLD	7	0	1	192
TAP	7	192	3
TAP	8	0	5
TAP	8	96	4
TAP	8	96	5
TAP	8	192	2
TAP	8	288	2
TAP	8	288	3
TAP	9	0	6
TAP	9	96	4
TAP	9	96	6
TAP	9	192	1
TAP	9	288	1
TAP	9	288	3
TAP	10	0	6
TAP	10	96	6
TAP	10	96	7
TAP	10	192	1
TAP	10	288	0
TAP	10	288	1
TAP	11	0	2
TAP	11	96	2
TAP	11	96	3
TAP	11	192	4
TAP	11	192	5
TAP	11	288	4
TAP	11	288	5
TAP	12	0	1
TAP	12	96	0
TAP	12	96	1
TAP	12	192	6
TAP	12	288	6
TAP	12	288	7
TAP	13	0	5
TAP	13	96	4
TAP	13	96	5
TAP	13	192	2
TAP	13	192	3
TAP	13	288	2
TAP	13	288	3
HLD	14	0	4	192
HLD	14	192	2	192
HLD	15	0	0	192
TAP	15	192	6
STR	16	0	0
SI_	16	0	0	96	96	4
STR	16	192	6
SI_	16	192	6	96	96	2
HLD	17	0	1	288
BRK	17	288	6
TAP	18	0	3
TAP	18	96	2
TAP	18	96	3
TAP	18	192	4
TAP	18	288	4
TAP	18	288	5
TAP	19	0	7
TAP	19	96	6
TAP	19	96	7
TAP	19	192	0
TAP	19	192	1
TAP	19	288	0
TAP	19	288	1
TAP	20	0	4
TAP	20	96	4
TAP	20	96	5
TAP	20	192	3
TAP	20	288	2
TAP	20	288	3
TAP	21	0	0
TAP	21	96	0
TAP	21	96	1
TAP	21	192	6
TAP	21	192	7
TAP	21	288	6
TAP	21	288	7
HLD	22	0	0	192
HLD	22	192	2	192
HLD	23	0	4	288
TAP	23	192	6
TAP	23	288	6
STR	24	0	0
SI_	24	0	0	96	96	3
STR	24	192	7
SI_	24	192	7	96	96	4
HLD	25	0	2	288
TAP	25	192	5
BRK	25	288	5
HLD	26	0	5	192
TAP	26	192	4
HLD	26	288	4	192
TAP	27	96	5
TAP	27	192	0
TAP	27	288	0
HLD	28	0	2	192
TAP	28	192	3
HLD	28	288	3	192
TAP	29	96	2
TAP	29	192	7
TAP	29	288	7
HLD	30	0	4	192
TAP	30	192	3
HLD	30	288	3	192
TAP	31	96	4
TAP	31	192	3
TAP	31	192	4
TAP	32	0	5
TAP	32	96	7
TAP	32	192	0
TAP	32	288	2
TAP	33	0	1
TAP	33	0	6
TAP	33	96	1
TAP	33	96	6
BRK	33	192	0
BRK	33	192	7
TAP	34	0	0
TAP	34	0	7
TAP	34	96	0
STR	34	96	7
SI_	34	96	7	96	96	3
TAP	35	0	2
TAP	35	96	2
TAP	35	96	3
TAP	35	192	5
TAP	35	288	4
TAP	35	288	5
HLD	36	0	6	288
HLD	36	192	1	96
TAP	37	0	1
TAP	37	0	6
TAP	37	96	1
TAP	37	96	6
TAP	37	192	0
TAP	37	192	7
TAP	38	0	0
TAP	38	0	7
STR	38	96	0
SI_	38	96	0	96	96	4
TAP	38	96	7
TAP	39	0	5
TAP	39	96	4
TAP	39	96	5
TAP	39	192	2
TAP	39	288	2
TAP	39	288	3
HLD	40	0	2	288
HLD	40	192	6	96
BRK	41	0	1
BRK	41	0	6
HLD	42	0	5	192
TAP	42	288	4
TAP	42	288	5
HLD	43	0	2	192
TAP	43	288	2
TAP	43	288	3
HLD	44	0	6	192
TAP	44	288	4
TAP	44	288	5
HLD	45	0	1	192
TAP	45	288	2
TAP	45	288	3
HLD	46	0	6	192
TAP	46	288	3
TAP	46	288	4
HLD	47	0	1	192
TAP	47	288	3
TAP	47	288	4
HLD	48	0	7	192
TAP	48	288	5
TAP	48	288	6
HLD	49	0	0	192
TAP	49	288	1
TAP	49	288	2
HLD	50	0	5	192
TAP	50	192	4
TAP	50	288	4
TAP	50	288	5
HLD	51	0	2	192
TAP	51	192	3
TAP	51	288	2
TAP	51	288	3
HLD	52	0	6	192
TAP	52	192	4
TAP	52	288	4
TAP	52	288	5
HLD	53	0	1	192
TAP	53	192	3
TAP	53	288	2
TAP	53	288	3
HLD	54	0	6	192
TAP	54	192	4
TAP	54	288	3
TAP	54	288	4
HLD	55	0	1	192
TAP	55	192	3
TAP	55	288	3
TAP	55	288	4
STR	56	0	3
SCR	56	0	3	96	192	6
TAP	57	0	0
TAP	57	0	1
TAP	57	96	6
TAP	57	96	7
BRK	57	192	3
BRK	57	192	4
TAP	58	0	0
TAP	58	0	7
STR	58	96	0
SI_	58	96	0	96	96	3
STR	58	96	7
SI_	58	96	7	96	96	4
TAP	59	0	5
TAP	59	96	4
TAP	59	96	5
TAP	59	192	2
TAP	59	288	2
TAP	59	288	3
HLD	60	0	6	288
HLD	60	192	2	96
TAP	61	0	1
TAP	61	0	5
TAP	61	96	1
TAP	61	96	5
TAP	61	192	0
TAP	61	192	4
TAP	62	0	0
TAP	62	0	7
STR	62	96	0
SCR	62	96	0	96	96	3
STR	62	96	7
SCL	62	96	7	96	96	4
TAP	63	0	5
TAP	63	96	4
TAP	63	96	5
TAP	63	192	2
TAP	63	288	2
TAP	63	288	3
HLD	64	0	1	288
HLD	64	192	5	96
BRK	65	0	2
BRK	65	0	6
TAP	65	192	1
TAP	65	192	6
TAP	65	288	6
TAP	65	288	7
TAP	66	0	0
TAP	66	0	1
TAP	66	192	2
TAP	66	192	5
HLD	67	0	1	288
HLD	67	0	6	288
BRK	68	0	0
BRK	68	0	7

T_REC_TAP	186
T_REC_BRK	12
T_REC_XTP	0
T_REC_HLD	44
T_REC_XHO	0
T_REC_STR	11
T_REC_BST	0
T_REC_XST	0
T_REC_TTP	0
T_REC_THO	0
T_REC_SLD	11
T_REC_ALL	264
T_NUM_TAP	197
T_NUM_BRK	12
T_NUM_HLD	44
T_NUM_SLD	11
T_NUM_ALL	264
T_JUDGE_TAP	209
T_JUDGE_HLD	179
T_JUDGE_SLD	11
T_JUDGE_ALL	399
TTM_EACHPAIRS	75
TTM_SCR_TAP	98500
TTM_SCR_BRK	31200
TTM_SCR_HLD	44000
TTM_SCR_SLD	16500
TTM_SCR_ALL	190200
TTM_SCR_S	183350
TTM_SCR_SS	189000
TTM_RAT_ACV	10063

