VERSION	0.00.00	1.03.00
FES_MODE	0
BPM_DEF	145.000	145.000	145.000	145.000
MET_DEF	4	4
RESOLUTION	384
CLK_DEF	384
COMPATIBLE_CODE	MA2

BPM	0	0	145.000
MET	0	0	4	4

STR	5	0	2
SI_	5	0	2	96	96	5
TAP	6	192	1
TAP	6	192	6
TAP	7	192	2
TAP	10	0	7
TAP	10	192	1
TAP	11	0	5
TAP	11	192	3
TAP	11	192	4
TAP	12	0	2
TAP	12	192	4
TAP	13	0	2
TAP	13	192	0
TAP	14	0	3
TAP	14	0	4
TAP	14	192	1
TAP	14	192	6
STR	15	0	0
SI_	15	0	0	96	192	3
STR	15	0	7
SI_	15	0	7	96	192	4
STR	17	0	1
SCR	17	0	1	96	192	4
TAP	18	0	5
TAP	18	192	2
TAP	19	0	1
TAP	20	0	2
TAP	20	0	5
HLD	21	0	0	96
TAP	21	192	1
TAP	22	0	5
TAP	22	192	2
TAP	23	0	2
TAP	23	0	5
HLD	23	192	1	96
HLD	23	192	6	96
TAP	24	0	2
TAP	24	192	5
STR	25	0	2
SI_	25	0	2	96	96	5
STR	26	0	0
SI_	26	0	0	96	288	3
BRK	27	192	7
BRK	27	288	7
STR	28	0	0
SI_	28	0	0	96	288	3
HLD	30	0	2	192
HLD	31	0	5	192
STR	32	0	3
SI_	32	0	3	96	192	0
STR	32	0	4
SI_	32	0	4	96	192	7
BRK	33	192	6
BRK	33	192	7
TAP	34	0	1
TAP	34	96	1
TAP	35	0	3
TAP	35	0	4
TAP	36	192	0
TAP	36	192	2
TAP	37	0	6
TAP	37	192	6
TAP	38	0	0
TAP	38	192	1
TAP	39	192	1
TAP	40	0	0
STR	40	192	4
SCR	40	192	4	96	192	7
TAP	42	0	5
TAP	42	192	2
TAP	43	0	6
TAP	44	0	0
TAP	44	0	7
TAP	45	0	3
TAP	45	0	4
TAP	46	0	6
TAP	46	192	1
TAP	47	0	6
TAP	48	0	2
TAP	48	0	5
HLD	49	0	3	192
HLD	49	0	4	192
TAP	50	0	6
TAP	50	192	1
HLD	51	0	6	192
TAP	52	0	1
TAP	52	192	0
TAP	52	288	1
TAP	53	0	2
HLD	54	0	2	192
HLD	54	0	3	192
HLD	55	0	3	192
HLD	55	0	4	192
HLD	56	0	4	192
HLD	56	0	5	192
STR	57	0	5
SI_	57	0	5	96	96	2
TAP	58	0	1
TAP	58	96	1
TAP	59	0	3
TAP	59	0	4
TAP	60	192	0
TAP	60	192	2
TAP	61	0	6
TAP	61	192	6
TAP	62	0	0
TAP	62	192	1
TAP	63	192	1
TAP	64	0	0
STR	64	192	4
SCR	64	192	4	96	192	7
BRK	66	0	1
BRK	66	0	6
HLD	67	0	5	192
HLD	67	0	6	192
STR	68	0	0
SI_	68	0	0	96	288	3
STR	68	0	7
SI_	68	0	7	96	288	4

T_REC_TAP	70
T_REC_BRK	6
T_REC_XTP	0
T_REC_HLD	16
T_REC_XHO	0
T_REC_STR	14
T_REC_BST	0
T_REC_XST	0
T_REC_TTP	0
T_REC_THO	0
T_REC_SLD	14
T_REC_ALL	120
T_NUM_TAP	84
T_NUM_BRK	6
T_NUM_HLD	16
T_NUM_SLD	14
T_NUM_ALL	120
T_JUDGE_TAP	90
T_JUDGE_HLD	58
T_JUDGE_SLD	14
T_JUDGE_ALL	162
TTM_EACHPAIRS	24
TTM_SCR_TAP	42000
TTM_SCR_BRK	15600
TTM_SCR_HLD	16000
TTM_SCR_SLD	21000
TTM_SCR_ALL	94600
TTM_SCR_S	91200
TTM_SCR_SS	94000
TTM_RAT_ACV	10063

