VERSION	0.00.00	1.03.00
FES_MODE	0
BPM_DEF	155.000	155.000	155.000	155.000
MET_DEF	4	4
RESOLUTION	384
CLK_DEF	384
COMPATIBLE_CODE	MA2

BPM	0	0	155.000
MET	0	0	4	4

TAP	2	0	0
TAP	2	0	4
TAP	2	16	1
TAP	2	16	5
TAP	2	32	2
TAP	2	32	6
TAP	2	48	3
TAP	2	48	7
TAP	2	96	3
TAP	2	96	7
TAP	2	112	2
TAP	2	112	6
TAP	2	128	1
TAP	2	128	5
TAP	2	144	0
TAP	2	144	4
TAP	2	192	0
TAP	2	192	4
TAP	2	208	1
TAP	2	208	5
TAP	2	224	2
TAP	2	224	6
TAP	2	240	3
TAP	2	240	7
TAP	2	288	3
BST	2	336	3
SF_	2	336	3	96	48	7
TAP	3	192	5
TAP	3	192	7
TAP	3	240	1
TAP	3	288	0
TAP	3	288	2
HLD	3	336	6	144
TAP	4	48	4
HLD	4	96	4	96
TAP	4	144	3
HLD	4	192	3	96
TAP	4	240	1
HLD	4	288	1	96
TAP	4	336	6
STR	5	0	6
SF_	5	0	6	96	48	2
TAP	5	192	0
TAP	5	192	4
TAP	5	240	5
TAP	5	288	3
TAP	5	288	7
HLD	5	336	2	144
TAP	6	48	0
HLD	6	96	0	96
TAP	6	144	7
HLD	6	192	7	96
TAP	6	240	5
HLD	6	288	5	96
TAP	6	336	4
STR	7	0	4
SF_	7	0	4	96	48	0
TAP	7	192	0
TAP	7	192	2
TAP	7	240	6
TAP	7	288	5
TAP	7	288	7
HLD	7	336	1	144
TAP	8	48	5
HLD	8	96	5	96
TAP	8	144	7
HLD	8	192	7	96
TAP	8	240	3
HLD	8	288	3	96
TAP	8	336	2
STR	9	0	2
SF_	9	0	2	96	48	6
STR	9	192	5
SF_	9	192	5	96	48	1
HLD	10	0	4	72
BRK	10	0	7
TAP	10	72	5
TAP	10	96	1
BRK	10	144	0
HLD	10	144	3	72
TAP	10	216	2
TAP	10	240	6
BRK	10	288	0
BST	10	288	1
SCR	10	288	1	96	48	3
STR	11	0	0
SUR	11	0	0	96	48	4
STR	11	96	7
SCL	11	96	7	96	48	5
STR	11	192	0
SUL	11	192	0	96	48	4
STR	11	288	1
SCR	11	288	1	96	48	3
STR	12	0	0
SUR	12	0	0	96	48	4
STR	12	96	7
SUR	12	96	7	96	96	0
STR	12	288	6
SCL	12	288	6	96	48	4
STR	13	0	7
SUL	13	0	7	96	48	3
STR	13	96	0
SCR	13	96	0	96	48	2
STR	13	192	7
SUR	13	192	7	96	48	3
STR	13	288	6
SCL	13	288	6	96	48	4
STR	14	0	7
SUL	14	0	7	96	48	3
STR	14	96	0
SUL	14	96	0	96	96	7
STR	14	288	2
SCL	14	288	2	96	48	0
STR	15	0	3
SUR	15	0	3	96	48	7
STR	15	96	4
SUL	15	96	4	96	48	0
STR	15	192	5
SCR	15	192	5	96	48	7
STR	15	288	2
SCL	15	288	2	96	48	0
STR	16	0	3
SUR	16	0	3	96	48	7
STR	16	96	4
SUL	16	96	4	96	48	0
STR	16	192	5
SCR	16	192	5	96	48	7
STR	16	288	1
SCR	16	288	1	96	48	3
STR	17	0	0
SUR	17	0	0	96	48	4
STR	17	96	6
SCL	17	96	6	96	48	4
STR	17	192	7
SUL	17	192	7	96	48	3
STR	17	288	1
SCR	17	288	1	96	48	3
STR	18	0	0
SUR	18	0	0	96	48	4
STR	18	96	7
SUR	18	96	7	96	96	0
TAP	18	288	5
STR	18	336	5
SF_	18	336	5	96	48	1
TAP	19	192	2
HLD	19	240	4	96
TAP	19	288	5
HLD	19	336	3	144
TAP	20	48	2
TAP	20	96	5
TAP	20	240	3
TAP	20	240	5
TAP	20	288	4
TAP	20	288	6
TAP	20	336	5
STR	20	336	7
SF_	20	336	7	96	48	3
HLD	21	192	6	96
TAP	21	240	0
HLD	21	288	1	96
HLD	21	336	7	192
TAP	22	48	6
TAP	22	96	0
TAP	22	144	1
TAP	22	240	4
TAP	22	240	6
TAP	22	288	3
TAP	22	288	5
STR	22	336	2
SF_	22	336	2	96	48	6
TAP	22	336	4
TAP	23	192	0
TAP	23	240	1
TAP	23	288	7
STR	23	336	6
SCL	23	336	6	96	48	4
TAP	24	48	6
STR	24	96	1
SCR	24	96	1	96	48	3
TAP	24	144	1
STR	24	192	7
SCL	24	192	7	96	48	5
TAP	24	240	7
STR	24	288	0
SCR	24	288	0	96	48	2
TAP	24	336	0
STR	25	0	4
SF_	25	0	4	96	48	0
TAP	25	48	4
TAP	25	192	4
TAP	25	240	3
TAP	25	288	5
TAP	25	336	0
TAP	25	336	2
TAP	26	0	1
TAP	26	48	0
TAP	26	48	2
TAP	26	96	5
TAP	26	96	7
TAP	26	144	6
TAP	26	192	5
TAP	26	192	7
TAP	26	240	0
TAP	26	288	7
STR	26	336	2
SF_	26	336	2	96	48	6
TAP	27	192	5
HLD	27	240	3	96
TAP	27	288	2
HLD	27	336	4	144
TAP	28	48	5
TAP	28	96	2
TAP	28	240	2
TAP	28	240	4
TAP	28	288	1
TAP	28	288	3
STR	28	336	0
SF_	28	336	0	96	48	4
TAP	28	336	2
TAP	29	192	1
TAP	29	192	7
TAP	29	240	0
HLD	29	240	6	96
TAP	29	288	7
TAP	29	336	0
HLD	30	0	1	96
TAP	30	0	7
TAP	30	48	0
TAP	30	96	7
TAP	30	144	0
TAP	30	144	6
TAP	30	240	1
TAP	30	240	3
TAP	30	288	2
TAP	30	288	4
TAP	30	336	3
STR	30	336	5
SF_	30	336	5	96	48	1
TAP	31	192	3
TAP	31	240	4
TAP	31	288	2
TAP	31	336	5
STR	32	0	3
SI_	32	0	3	96	48	1
STR	32	48	3
SI_	32	48	3	96	48	7
STR	32	96	3
SI_	32	96	3	96	48	0
STR	32	144	3
SI_	32	144	3	96	48	6
STR	32	192	3
SI_	32	192	3	96	48	7
STR	32	240	3
SCR	32	240	3	96	240	2
BRK	33	336	6
BST	33	336	7
SF_	33	336	7	96	48	3
BRK	34	48	7
BST	34	144	0
SF_	34	144	0	96	48	4
BRK	34	144	1
BRK	34	240	0
STR	35	0	3
SCL	35	0	3	96	144	5
STR	35	0	5
SUL	35	0	5	96	144	3
STR	35	336	3
SUR	35	336	3	96	144	5
STR	35	336	5
SCR	35	336	5	96	144	3
TAP	36	240	6
TAP	36	288	7
TAP	36	336	0
HLD	37	0	1	96
HLD	37	96	7	96
HLD	37	192	5	96
TAP	37	288	3
TAP	37	336	1
TAP	38	48	6
STR	38	240	0
SF_	38	240	0	96	48	4
TAP	38	288	1
TAP	38	288	7
BRK	38	336	0
STR	39	48	7
SF_	39	48	7	96	48	3
TAP	39	96	0
TAP	39	96	6
BRK	39	144	7
STR	39	240	1
SF_	39	240	1	96	48	5
TAP	39	288	0
TAP	39	288	2
BRK	39	336	1
STR	40	48	6
SF_	40	48	6	96	48	2
TAP	40	96	5
TAP	40	96	7
BRK	40	144	6
STR	40	240	0
SUL	40	240	0	96	48	3
SUR	40	240	0	96	48	5
TAP	40	288	1
TAP	40	288	7
TAP	41	48	1
TAP	41	96	0
TAP	41	96	2
TAP	41	144	1
TAP	41	144	7
TAP	41	192	6
TAP	41	240	1
TAP	41	240	7
TAP	41	288	0
TAP	41	288	2
STR	41	336	7
SF_	41	336	7	96	48	3
BST	42	48	7
SCL	42	48	7	96	48	5
SCR	42	48	7	96	48	1
BST	42	144	7
SF_	42	144	7	96	48	3
STR	43	0	2
SUR	43	0	2	96	144	4
STR	43	0	4
SCR	43	0	4	96	144	2
STR	43	336	2
SCL	43	336	2	96	144	4
STR	43	336	4
SUL	43	336	4	96	144	2
TAP	44	240	1
TAP	44	288	0
TAP	44	336	7
HLD	45	0	6	96
HLD	45	96	0	96
TAP	45	192	2
TAP	45	240	0
TAP	45	288	6
TAP	45	336	4
TAP	46	0	7
TAP	46	48	1
HLD	46	96	3	96
STR	46	240	0
SLR	46	240	0	96	96	6
TAP	46	240	2
TAP	46	288	1
TAP	46	288	7
TAP	46	336	0
STR	46	336	6
SLL	46	336	6	96	96	0
TAP	47	240	5
STR	47	240	7
SLL	47	240	7	96	96	1
TAP	47	288	0
TAP	47	288	6
STR	47	336	1
SLR	47	336	1	96	96	7
TAP	47	336	7
TAP	48	240	7
TAP	48	288	3
TAP	48	336	1
TAP	48	336	6
TAP	49	0	0
TAP	49	0	4
TAP	49	96	3
TAP	49	96	7
TAP	49	192	2
TAP	49	192	5
STR	49	240	0
SI_	49	240	0	96	48	4
STR	49	240	7
SI_	49	240	7	96	48	5
TAP	49	288	1
TAP	49	288	6
BST	49	336	0
SI_	49	336	0	96	48	2
BST	49	336	7
SI_	49	336	7	96	48	3
BRK	50	48	0
BRK	50	48	7
BRK	50	144	0
BRK	50	144	7
BRK	50	192	5
TAP	50	204	6
TAP	50	216	7
TAP	50	228	0
TAP	50	240	1
TAP	50	252	2
TAP	50	264	3
TAP	50	276	4
BRK	50	288	5
BST	50	336	2
SF_	50	336	2	96	48	6
TAP	50	348	1
TAP	50	360	0
TAP	50	372	7
TAP	51	0	6
TAP	51	12	5
TAP	51	24	4
TAP	51	36	3
BRK	51	48	2
TAP	51	192	2
TAP	51	240	3
TAP	51	288	4
HLD	51	336	5	96
TAP	52	48	4
TAP	52	96	3
TAP	52	144	2
BRK	52	192	5
TAP	52	204	6
TAP	52	216	7
TAP	52	228	0
TAP	52	240	1
TAP	52	252	2
TAP	52	264	3
TAP	52	276	4
BRK	52	288	5
BST	52	336	2
SF_	52	336	2	96	48	6
TAP	52	348	1
TAP	52	360	0
TAP	52	372	7
TAP	53	0	6
TAP	53	12	5
TAP	53	24	4
TAP	53	36	3
BRK	53	48	2
HLD	53	192	1	72
HLD	53	264	7	72
TAP	53	336	5
HLD	54	0	6	144
TAP	54	48	0
TAP	54	96	1
TAP	54	144	2
BRK	54	192	5
TAP	54	204	6
TAP	54	216	7
TAP	54	228	0
TAP	54	240	1
TAP	54	252	2
TAP	54	264	3
TAP	54	276	4
BRK	54	288	5
BST	54	336	2
SF_	54	336	2	96	48	6
TAP	54	348	1
TAP	54	360	0
TAP	54	372	7
TAP	55	0	6
TAP	55	12	5
TAP	55	24	4
TAP	55	36	3
BRK	55	48	2
STR	55	192	5
SUR	55	192	5	96	48	2
STR	55	288	6
SCR	55	288	6	96	48	1
STR	56	0	2
SUL	56	0	2	96	48	5
STR	56	96	1
SCL	56	96	1	96	48	6
STR	56	288	4
SXL	56	288	4	96	48	5
SXR	56	288	4	96	48	3
BST	57	0	4
SF_	57	0	4	96	288	0
TAP	58	96	3
TAP	58	96	4
BRK	58	192	5
TAP	58	204	6
TAP	58	216	7
TAP	58	228	0
TAP	58	240	1
TAP	58	252	2
TAP	58	264	3
TAP	58	276	4
BRK	58	288	5
BST	58	336	2
SF_	58	336	2	96	48	6
TAP	58	348	1
TAP	58	360	0
TAP	58	372	7
TAP	59	0	6
TAP	59	12	5
TAP	59	24	4
TAP	59	36	3
BRK	59	48	2
TAP	59	192	2
TAP	59	240	3
TAP	59	288	4
HLD	59	336	5	96
TAP	60	48	4
TAP	60	96	3
TAP	60	144	2
BRK	60	192	5
TAP	60	204	6
TAP	60	216	7
TAP	60	228	0
TAP	60	240	1
TAP	60	252	2
TAP	60	264	3
TAP	60	276	4
BRK	60	288	5
BST	60	336	2
SF_	60	336	2	96	48	6
TAP	60	348	1
TAP	60	360	0
TAP	60	372	7
TAP	61	0	6
TAP	61	12	5
TAP	61	24	4
TAP	61	36	3
BRK	61	48	2
HLD	61	192	1	72
HLD	61	264	7	72
HLD	61	336	5	96
TAP	62	48	6
TAP	62	96	0
TAP	62	144	2
BRK	62	192	5
TAP	62	204	6
TAP	62	216	7
TAP	62	228	0
TAP	62	240	1
TAP	62	252	2
TAP	62	264	3
TAP	62	276	4
BRK	62	288	5
BST	62	336	2
SF_	62	336	2	96	48	6
TAP	62	348	1
TAP	62	360	0
TAP	62	372	7
TAP	63	0	6
TAP	63	12	5
TAP	63	24	4
TAP	63	36	3
BRK	63	48	2
TAP	63	192	4
TAP	63	240	2
TAP	63	288	1
TAP	63	336	0
TAP	64	48	3
TAP	64	96	5
TAP	64	144	7
STR	64	336	0
SI_	64	336	0	96	48	6
STR	65	0	6
SV_	65	0	6	96	48	5
STR	65	48	5
SLL	65	48	5	96	96	0
STR	65	288	7
SI_	65	288	7	96	48	4
STR	65	336	7
SSR	65	336	7	96	576	3
BST	67	192	7
SF_	67	192	7	96	48	3
BRK	67	288	7

T_REC_TAP	293
T_REC_BRK	34
T_REC_XTP	0
T_REC_HLD	37
T_REC_XHO	0
T_REC_STR	79
T_REC_BST	16
T_REC_XST	0
T_REC_TTP	0
T_REC_THO	0
T_REC_SLD	98
T_REC_ALL	557
T_NUM_TAP	372
T_NUM_BRK	50
T_NUM_HLD	37
T_NUM_SLD	98
T_NUM_ALL	557
T_JUDGE_TAP	422
T_JUDGE_HLD	82
T_JUDGE_SLD	98
T_JUDGE_ALL	602
TTM_EACHPAIRS	72
TTM_SCR_TAP	186000
TTM_SCR_BRK	130000
TTM_SCR_HLD	37000
TTM_SCR_SLD	147000
TTM_SCR_ALL	500000
TTM_SCR_S	480150
TTM_SCR_SS	495000
TTM_RAT_ACV	10101

