VERSION	0.00.00	1.03.00
FES_MODE	0
BPM_DEF	155.000	155.000	155.000	155.000
MET_DEF	4	4
RESOLUTION	384
CLK_DEF	384
COMPATIBLE_CODE	MA2

BPM	0	0	155.000
MET	0	0	4	4

TAP	2	0	3
TAP	2	24	4
TAP	2	72	4
TAP	2	96	3
TAP	2	120	4
TAP	2	168	4
TAP	2	192	3
TAP	2	216	4
TAP	2	240	2
TAP	2	288	6
HLD	2	336	0	384
STR	2	336	3
SI_	2	336	3	96	288	7
TAP	4	96	2
TAP	4	144	1
TAP	4	192	0
TAP	4	240	7
TAP	4	288	6
TAP	4	336	5
TAP	5	0	0
TAP	5	0	4
TAP	5	48	2
TAP	5	48	6
HLD	5	96	7	240
TAP	6	0	0
TAP	6	0	1
TAP	6	96	4
TAP	6	96	5
TAP	6	192	7
TAP	6	216	6
TAP	6	240	5
TAP	6	288	2
TAP	6	336	3
STR	7	0	4
SI_	7	0	4	96	240	0
HLD	7	0	7	336
TAP	8	96	3
TAP	8	144	2
TAP	8	192	1
TAP	8	240	6
TAP	8	288	5
TAP	8	336	4
TAP	9	0	1
TAP	9	0	6
TAP	9	48	3
TAP	9	48	4
TAP	9	240	0
TAP	9	264	1
TAP	9	288	2
TAP	9	312	3
TAP	9	336	4
TAP	9	360	5
TAP	10	0	6
TAP	10	0	7
TAP	10	144	0
TAP	10	144	7
BRK	10	288	0
BRK	10	288	1
STR	11	0	0
SI_	11	0	0	96	384	3
STR	12	192	1
SCL	12	192	1	96	96	6
STR	12	288	6
SI_	12	288	6	96	384	2
STR	14	192	1
SI_	14	192	1	96	96	5
STR	14	288	5
SCL	14	288	5	96	288	2
STR	16	0	6
SCR	16	0	6	96	192	1
STR	16	0	7
SI_	16	0	7	96	192	4
STR	17	0	1
SI_	17	0	1	96	384	6
STR	17	0	7
SI_	17	0	7	96	384	3
TAP	18	240	3
TAP	18	288	2
TAP	18	336	1
TAP	19	48	1
TAP	19	96	3
TAP	19	96	7
TAP	19	192	1
TAP	19	240	3
TAP	19	240	7
TAP	19	336	6
TAP	20	48	6
TAP	20	96	0
TAP	20	96	4
TAP	20	192	6
TAP	20	240	0
TAP	20	240	4
TAP	20	336	3
TAP	21	48	3
TAP	21	96	1
TAP	21	96	5
TAP	21	192	3
TAP	21	240	1
TAP	21	240	5
TAP	21	336	5
TAP	22	48	5
TAP	22	96	0
TAP	22	96	4
TAP	22	192	6
TAP	22	240	3
TAP	22	240	5
TAP	22	288	4
TAP	22	288	7
TAP	22	336	1
TAP	23	48	1
TAP	23	96	2
TAP	23	96	5
TAP	23	192	1
TAP	23	240	2
TAP	23	240	5
TAP	23	336	7
TAP	24	48	7
TAP	24	96	3
TAP	24	96	6
TAP	24	192	7
TAP	24	240	3
TAP	24	240	6
TAP	24	336	3
TAP	24	336	5
TAP	25	48	3
TAP	25	96	4
TAP	25	120	3
TAP	25	144	4
TAP	25	192	1
TAP	25	240	7
TAP	25	336	0
TAP	26	48	0
TAP	26	96	6
TAP	26	144	1
TAP	26	192	5
TAP	26	240	2
TAP	26	288	3
TAP	26	336	3
TAP	27	48	3
TAP	27	96	5
TAP	27	96	6
TAP	27	192	3
TAP	27	240	5
TAP	27	240	6
TAP	27	336	7
TAP	28	48	7
TAP	28	96	1
TAP	28	96	2
TAP	28	192	7
TAP	28	240	1
TAP	28	240	2
TAP	28	336	4
TAP	29	48	4
TAP	29	96	6
TAP	29	96	7
TAP	29	192	4
TAP	29	240	6
TAP	29	240	7
TAP	29	336	0
TAP	30	48	0
TAP	30	96	2
TAP	30	96	3
TAP	30	192	0
TAP	30	240	2
TAP	30	240	3
TAP	30	336	1
TAP	31	48	1
TAP	31	96	3
TAP	31	96	7
TAP	31	192	1
TAP	31	240	3
TAP	31	240	7
HLD	31	336	4	96
TAP	32	48	3
TAP	32	96	5
TAP	32	144	2
TAP	32	192	6
TAP	32	240	1
TAP	32	288	7
TAP	32	336	0
TAP	33	48	7
TAP	33	96	1
TAP	33	120	5
TAP	33	144	1
TAP	33	192	4
TAP	33	240	3
TAP	33	336	0
TAP	33	336	1
TAP	34	48	6
TAP	34	48	7
TAP	34	144	2
TAP	34	144	4
BRK	34	240	3
BRK	34	240	5
HLD	35	0	7	96
TAP	35	96	6
HLD	35	144	6	144
TAP	35	240	5
TAP	35	288	5
HLD	35	336	5	240
HLD	36	48	4	144
TAP	36	240	2
TAP	36	288	3
TAP	36	336	4
HLD	37	0	5	96
HLD	37	0	6	96
HLD	37	192	1	96
HLD	37	192	3	96
HLD	37	336	4	192
HLD	37	336	7	192
STR	38	240	4
SI_	38	240	4	96	24	0
TAP	38	288	6
TAP	38	336	7
STR	39	48	1
SI_	39	48	1	96	24	5
TAP	39	96	3
TAP	39	144	4
STR	39	240	7
SI_	39	240	7	96	24	3
TAP	39	288	0
TAP	39	336	1
STR	40	48	2
SI_	40	48	2	96	24	6
TAP	40	96	3
TAP	40	144	4
TAP	40	240	1
TAP	40	288	0
HLD	40	336	6	384
TAP	40	336	7
TAP	41	48	7
TAP	41	96	0
TAP	41	144	1
TAP	41	192	2
TAP	41	240	3
TAP	41	288	4
TAP	41	336	5
TAP	42	48	0
TAP	42	48	1
TAP	42	144	2
TAP	42	144	3
TAP	42	240	4
TAP	42	240	5
HLD	43	0	0	96
TAP	43	96	1
HLD	43	144	1	144
TAP	43	240	2
TAP	43	288	2
HLD	43	336	2	240
HLD	44	48	3	144
TAP	44	240	6
TAP	44	288	5
TAP	44	336	4
HLD	45	0	2	96
HLD	45	0	3	96
HLD	45	192	4	96
HLD	45	192	6	96
HLD	45	336	0	240
HLD	45	336	3	240
STR	46	240	3
SI_	46	240	3	96	240	7
TAP	46	288	2
TAP	46	336	1
STR	47	240	4
SI_	47	240	4	96	240	0
TAP	47	288	5
TAP	47	336	6
TAP	48	240	7
TAP	48	288	6
TAP	48	336	5
TAP	49	0	1
TAP	49	0	4
TAP	49	96	3
TAP	49	96	6
TAP	49	192	0
TAP	49	192	4
TAP	49	240	1
TAP	49	240	4
TAP	49	288	2
TAP	49	288	4
TAP	49	336	3
TAP	49	336	4
TAP	50	48	3
TAP	50	48	5
TAP	50	96	3
TAP	50	96	6
TAP	50	144	3
TAP	50	144	7
TAP	50	192	0
TAP	50	240	1
TAP	50	288	2
BRK	50	336	0
BRK	50	336	4
BRK	51	48	2
BRK	51	48	6
HLD	51	96	4	96
TAP	51	192	3
TAP	51	240	2
TAP	51	288	1
TAP	51	336	4
TAP	52	0	7
TAP	52	48	6
TAP	52	96	1
HLD	52	144	0	144
TAP	52	192	5
TAP	52	240	6
TAP	52	288	7
BRK	52	336	1
BRK	52	336	5
BRK	53	48	3
BRK	53	48	7
HLD	53	96	3	96
HLD	53	192	0	48
HLD	53	240	1	96
HLD	53	336	7	48
HLD	54	0	6	48
HLD	54	48	5	48
HLD	54	96	6	48
HLD	54	144	4	144
TAP	54	192	2
TAP	54	240	1
TAP	54	288	0
BRK	54	336	2
BRK	54	336	6
BRK	55	48	0
BRK	55	48	4
HLD	55	96	4	96
TAP	55	192	5
TAP	55	240	6
TAP	55	288	7
HLD	55	336	7	96
TAP	56	48	0
TAP	56	96	1
TAP	56	144	0
TAP	56	288	3
TAP	56	288	4
STR	57	0	3
SCL	57	0	3	96	288	0
STR	57	0	4
SCR	57	0	4	96	288	7
TAP	58	96	6
TAP	58	96	7
TAP	58	192	0
TAP	58	192	1
TAP	58	264	4
TAP	58	264	5
TAP	58	336	2
TAP	58	336	3
HLD	59	96	5	96
TAP	59	192	3
TAP	59	240	2
HLD	59	336	0	96
TAP	60	48	5
TAP	60	96	4
HLD	60	144	5	144
TAP	60	192	6
TAP	60	240	7
TAP	60	288	0
BRK	60	336	1
BRK	60	336	5
BRK	61	48	3
BRK	61	48	7
HLD	61	96	3	96
HLD	61	192	7	72
HLD	61	264	6	72
HLD	61	336	5	96
TAP	62	48	4
TAP	62	96	3
HLD	62	144	4	144
TAP	62	192	1
TAP	62	240	0
TAP	62	288	7
BRK	62	336	2
BRK	62	336	6
BRK	63	48	0
BRK	63	48	4
HLD	63	96	2	240
TAP	63	192	4
TAP	63	240	5
TAP	63	288	6
HLD	63	336	6	336
TAP	64	48	0
TAP	64	96	1
HLD	64	144	0	144
TAP	64	336	2
TAP	64	336	6
TAP	65	0	0
TAP	65	0	4
TAP	65	48	2
TAP	65	48	3
TAP	65	144	1
TAP	65	144	5
TAP	65	192	3
TAP	65	192	7
TAP	65	240	1
TAP	65	240	4
TAP	65	288	4
TAP	65	288	5
HLD	65	336	4	144
HLD	65	336	6	576
HLD	66	144	2	96
HLD	66	288	7	96
HLD	67	48	3	96
TAP	67	192	0
TAP	67	192	4
BRK	67	288	1
BRK	67	288	5

T_REC_TAP	290
T_REC_BRK	26
T_REC_XTP	0
T_REC_HLD	53
T_REC_XHO	0
T_REC_STR	19
T_REC_BST	0
T_REC_XST	0
T_REC_TTP	0
T_REC_THO	0
T_REC_SLD	19
T_REC_ALL	407
T_NUM_TAP	309
T_NUM_BRK	26
T_NUM_HLD	53
T_NUM_SLD	19
T_NUM_ALL	407
T_JUDGE_TAP	335
T_JUDGE_HLD	165
T_JUDGE_SLD	19
T_JUDGE_ALL	519
TTM_EACHPAIRS	86
TTM_SCR_TAP	154500
TTM_SCR_BRK	67600
TTM_SCR_HLD	53000
TTM_SCR_SLD	28500
TTM_SCR_ALL	303600
TTM_SCR_S	292000
TTM_SCR_SS	301000
TTM_RAT_ACV	10086

