VERSION	0.00.00	1.03.00
FES_MODE	0
BPM_DEF	155.000	155.000	155.000	155.000
MET_DEF	4	4
RESOLUTION	384
CLK_DEF	384
COMPATIBLE_CODE	MA2

BPM	0	0	155.000
MET	0	0	4	4

HLD	2	336	1	528
STR	4	96	2
SI_	4	96	2	96	96	6
TAP	5	0	7
TAP	5	48	7
HLD	7	0	6	480
STR	8	96	5
SI_	8	96	5	96	96	0
TAP	9	0	0
BRK	9	48	0
TAP	10	0	3
TAP	10	0	7
TAP	10	144	1
TAP	10	144	5
TAP	10	288	2
TAP	10	288	6
HLD	11	0	3	288
HLD	11	336	1	336
HLD	13	0	2	288
HLD	13	336	4	336
HLD	15	0	1	288
HLD	15	336	7	336
STR	17	0	4
SI_	17	0	4	96	192	0
TAP	18	240	0
TAP	18	288	7
HLD	18	336	6	144
TAP	19	96	5
TAP	19	192	7
TAP	19	240	0
TAP	19	288	1
HLD	19	336	2	96
TAP	20	48	3
TAP	20	96	3
TAP	20	240	1
TAP	20	288	0
HLD	20	336	7	96
TAP	21	48	6
TAP	21	96	6
TAP	21	144	7
TAP	21	192	0
TAP	21	240	1
TAP	21	288	2
HLD	21	336	4	96
TAP	22	48	6
TAP	22	96	6
TAP	22	144	7
TAP	22	240	5
TAP	22	288	4
HLD	22	336	3	96
TAP	23	48	0
TAP	23	96	0
TAP	23	192	2
TAP	23	240	3
TAP	23	288	4
HLD	23	336	5	96
TAP	24	48	7
TAP	24	96	7
TAP	24	144	6
TAP	24	192	6
TAP	24	240	4
TAP	24	288	2
HLD	24	336	0	96
TAP	25	48	7
STR	25	96	7
SI_	25	96	7	96	96	4
TAP	26	240	0
TAP	26	288	1
HLD	26	336	2	144
TAP	27	96	3
TAP	27	192	1
TAP	27	240	0
TAP	27	288	7
HLD	27	336	6	96
TAP	28	48	5
BRK	28	96	5
TAP	28	240	6
TAP	28	288	7
HLD	28	336	0	96
TAP	29	48	1
TAP	29	96	1
TAP	29	144	0
TAP	29	192	7
TAP	29	240	6
TAP	29	288	5
HLD	29	336	3	96
TAP	30	48	2
TAP	30	96	2
BRK	30	144	0
TAP	30	240	0
TAP	30	288	2
HLD	30	336	4	96
TAP	31	48	7
TAP	31	96	7
TAP	31	144	4
TAP	31	192	4
TAP	31	240	2
TAP	31	288	0
HLD	31	336	6	96
TAP	32	48	5
TAP	32	96	5
TAP	32	144	4
TAP	32	192	6
TAP	32	240	0
TAP	32	288	2
STR	32	336	4
SI_	32	336	4	96	96	1
STR	33	48	6
SI_	33	48	6	96	96	3
TAP	33	336	0
TAP	33	336	2
TAP	34	48	2
TAP	34	48	4
TAP	34	144	4
TAP	34	144	6
TAP	34	240	0
TAP	34	240	6
HLD	35	0	5	336
HLD	35	336	3	240
HLD	36	48	2	192
TAP	36	240	3
TAP	36	288	4
TAP	36	336	5
STR	37	0	6
SI_	37	0	6	96	48	2
STR	37	192	1
SCR	37	192	1	96	48	4
HLD	37	336	5	96
HLD	38	48	7	144
TAP	38	240	6
TAP	38	288	5
TAP	38	336	3
TAP	38	336	4
TAP	39	48	6
TAP	39	96	7
TAP	39	144	0
TAP	39	144	1
TAP	39	240	7
TAP	39	288	6
TAP	39	336	4
TAP	39	336	5
TAP	40	48	7
TAP	40	96	0
TAP	40	144	1
TAP	40	144	2
TAP	40	240	7
TAP	40	288	5
HLD	40	336	3	96
TAP	41	48	2
TAP	41	96	2
TAP	41	144	1
TAP	41	192	1
STR	41	240	0
SI_	41	240	0	96	48	4
TAP	41	288	0
STR	41	336	7
SI_	41	336	7	96	48	3
HLD	43	0	7	336
HLD	43	336	5	240
HLD	44	48	4	192
TAP	44	240	5
TAP	44	288	6
TAP	44	336	7
STR	45	0	0
SI_	45	0	0	96	48	4
STR	45	192	6
SCL	45	192	6	96	48	3
HLD	45	336	2	96
HLD	46	48	0	144
TAP	46	240	2
TAP	46	288	3
HLD	46	336	4	336
TAP	47	288	7
HLD	47	336	6	288
TAP	48	240	5
TAP	48	288	4
TAP	48	336	3
HLD	49	0	2	96
HLD	49	96	6	96
TAP	49	192	7
STR	49	240	0
SI_	49	240	0	96	48	5
TAP	49	288	0
STR	50	48	1
SI_	50	48	1	96	48	4
TAP	50	96	1
HLD	50	192	6	96
TAP	50	288	7
BRK	50	336	0
BRK	50	336	7
BRK	51	48	0
BRK	51	48	1
HLD	51	96	2	96
TAP	51	192	3
TAP	51	240	3
TAP	51	288	4
TAP	51	336	2
TAP	52	0	1
TAP	52	48	0
TAP	52	96	7
TAP	52	144	6
HLD	52	192	5	96
TAP	52	288	7
BRK	52	336	0
BRK	52	336	1
BRK	53	48	2
BRK	53	48	3
HLD	53	96	4	96
TAP	53	192	3
TAP	53	264	1
TAP	53	336	7
TAP	54	0	0
TAP	54	48	1
TAP	54	96	2
TAP	54	144	3
HLD	54	192	4	96
TAP	54	288	2
BRK	54	336	1
BRK	54	336	7
BRK	55	48	0
BRK	55	48	6
HLD	55	96	1	96
TAP	55	192	2
TAP	55	240	2
TAP	55	288	3
HLD	55	336	0	96
TAP	56	48	7
TAP	56	96	7
TAP	56	144	6
STR	56	288	1
SCL	56	288	1	96	288	6
STR	56	288	3
SCR	56	288	3	96	288	6
TAP	58	96	5
TAP	58	96	7
BRK	58	192	0
BRK	58	192	4
BRK	58	264	2
BRK	58	264	6
BRK	58	336	3
BRK	58	336	7
STR	59	0	7
SI_	59	0	7	96	48	4
HLD	59	96	1	96
TAP	59	192	0
TAP	59	240	7
TAP	59	288	6
HLD	59	336	5	96
TAP	60	48	3
TAP	60	96	3
TAP	60	144	2
HLD	60	192	4	96
TAP	60	288	5
BRK	60	336	6
BRK	60	336	7
BRK	61	48	0
BRK	61	48	1
HLD	61	96	7	96
TAP	61	192	6
TAP	61	264	4
HLD	61	336	2	96
TAP	62	48	0
TAP	62	96	0
TAP	62	144	7
HLD	62	192	6	96
TAP	62	288	0
BRK	62	336	1
BRK	62	336	2
BRK	63	48	4
BRK	63	48	5
HLD	63	96	6	96
TAP	63	192	5
TAP	63	240	5
TAP	63	288	3
HLD	63	336	1	96
TAP	64	48	7
TAP	64	96	7
HLD	64	144	7	144
TAP	64	336	0
TAP	65	0	2
TAP	65	48	4
TAP	65	48	5
TAP	65	144	3
TAP	65	192	0
TAP	65	192	1
TAP	65	240	7
TAP	65	288	6
HLD	65	336	5	720
BRK	67	192	0
BRK	67	288	0

T_REC_TAP	172
T_REC_BRK	31
T_REC_XTP	0
T_REC_HLD	53
T_REC_XHO	0
T_REC_STR	17
T_REC_BST	0
T_REC_XST	0
T_REC_TTP	0
T_REC_THO	0
T_REC_SLD	17
T_REC_ALL	290
T_NUM_TAP	189
T_NUM_BRK	31
T_NUM_HLD	53
T_NUM_SLD	17
T_NUM_ALL	290
T_JUDGE_TAP	220
T_JUDGE_HLD	197
T_JUDGE_SLD	17
T_JUDGE_ALL	434
TTM_EACHPAIRS	28
TTM_SCR_TAP	94500
TTM_SCR_BRK	80600
TTM_SCR_HLD	53000
TTM_SCR_SLD	25500
TTM_SCR_ALL	253600
TTM_SCR_S	243000
TTM_SCR_SS	250500
TTM_RAT_ACV	10123

