VERSION	0.00.00	1.03.00
FES_MODE	0
BPM_DEF	155.000	155.000	155.000	155.000
MET_DEF	4	4
RESOLUTION	384
CLK_DEF	384
COMPATIBLE_CODE	MA2

BPM	0	0	155.000
MET	0	0	4	4

TAP	2	0	7
TAP	2	96	7
TAP	2	192	7
TAP	2	288	2
STR	2	336	2
SI_	2	336	2	96	48	7
TAP	4	96	0
TAP	4	192	1
TAP	4	288	2
TAP	5	0	6
TAP	5	96	5
TAP	5	192	1
TAP	5	288	2
TAP	6	0	6
TAP	6	96	5
TAP	6	192	1
STR	6	288	2
SI_	6	288	2	96	48	7
TAP	7	288	7
TAP	8	0	6
TAP	8	96	7
TAP	8	192	0
TAP	8	288	1
TAP	9	0	0
TAP	9	96	1
TAP	9	192	0
TAP	9	288	7
TAP	10	0	0
TAP	10	0	7
TAP	10	144	0
TAP	10	144	7
STR	10	288	0
SCR	10	288	0	96	288	3
STR	10	288	7
SCL	10	288	7	96	288	4
STR	12	288	5
SCL	12	288	5	96	288	2
STR	12	288	6
SCR	12	288	6	96	288	1
STR	14	288	1
SCL	14	288	1	96	288	6
STR	14	288	2
SCR	14	288	2	96	288	5
STR	16	288	3
SCL	16	288	3	96	288	0
STR	16	288	4
SCR	16	288	4	96	288	7
TAP	18	288	2
STR	18	336	2
SI_	18	336	2	96	48	7
TAP	19	192	0
TAP	19	288	3
TAP	20	0	6
TAP	20	96	4
TAP	20	192	1
TAP	20	288	2
TAP	21	0	6
TAP	21	0	7
TAP	21	96	5
TAP	21	192	0
TAP	21	192	1
TAP	21	288	2
TAP	22	0	0
TAP	22	96	6
TAP	22	192	4
TAP	22	288	2
STR	22	336	2
SI_	22	336	2	96	48	7
TAP	23	192	1
TAP	23	288	0
TAP	23	288	1
TAP	24	0	6
TAP	24	96	6
TAP	24	96	7
TAP	24	192	0
STR	24	288	0
SCR	24	288	0	96	288	3
STR	24	288	7
SCL	24	288	7	96	288	4
TAP	26	288	2
STR	26	336	2
SI_	26	336	2	96	48	7
TAP	27	192	7
TAP	27	288	1
TAP	28	0	6
TAP	28	96	4
TAP	28	192	2
TAP	28	288	4
TAP	29	0	6
TAP	29	96	3
TAP	29	192	0
TAP	29	288	5
TAP	30	0	1
TAP	30	96	4
TAP	30	192	7
TAP	30	288	2
STR	30	336	2
SI_	30	336	2	96	48	7
TAP	31	192	0
TAP	31	192	7
TAP	31	288	7
TAP	32	0	6
TAP	32	0	7
TAP	32	96	0
TAP	32	192	0
TAP	32	192	7
TAP	32	288	1
TAP	33	0	0
STR	33	0	1
SCL	33	0	1	96	192	6
HLD	35	0	2	192
HLD	35	192	5	192
HLD	36	0	0	192
HLD	36	192	3	192
TAP	37	0	1
TAP	37	96	4
TAP	37	192	0
TAP	37	288	5
TAP	38	0	7
TAP	38	96	2
TAP	38	192	6
TAP	38	288	3
TAP	38	336	3
TAP	39	96	5
TAP	39	144	5
TAP	39	288	1
TAP	39	336	1
TAP	40	96	7
TAP	40	144	7
TAP	40	288	0
STR	40	336	0
SCL	40	336	0	96	144	5
TAP	41	288	1
TAP	41	336	1
BRK	42	48	0
BRK	42	48	1
BRK	42	144	0
BRK	42	144	7
BRK	42	240	6
BRK	42	240	7
HLD	43	0	5	192
HLD	43	192	2	192
HLD	44	0	7	192
HLD	44	192	4	192
TAP	45	0	6
TAP	45	96	0
TAP	45	192	2
TAP	45	288	4
TAP	46	0	1
TAP	46	96	7
TAP	46	192	5
TAP	46	288	3
STR	46	336	3
SI_	46	336	3	96	96	0
TAP	47	288	4
STR	47	336	4
SI_	47	336	4	96	96	7
TAP	48	288	0
TAP	48	288	7
TAP	49	0	2
TAP	49	96	0
TAP	49	96	7
TAP	49	192	5
TAP	49	288	0
TAP	49	288	7
TAP	49	336	0
TAP	49	336	7
TAP	50	48	1
TAP	50	48	6
TAP	50	144	0
TAP	50	144	7
TAP	50	192	0
TAP	50	192	7
TAP	50	288	2
STR	50	336	2
SI_	50	336	2	96	48	7
HLD	51	192	5	96
HLD	51	288	4	96
HLD	52	0	3	96
TAP	52	96	2
TAP	52	192	0
TAP	52	192	7
TAP	52	288	2
STR	52	336	2
SI_	52	336	2	96	48	7
HLD	53	192	1	96
HLD	53	288	0	96
HLD	54	0	7	96
TAP	54	96	6
TAP	54	192	0
TAP	54	192	7
TAP	54	288	2
STR	54	336	2
SI_	54	336	2	96	48	7
HLD	55	192	5	96
HLD	55	288	1	96
HLD	56	0	7	96
HLD	56	96	3	96
TAP	56	192	4
STR	56	288	0
SCL	56	288	0	96	288	5
STR	56	288	1
SCR	56	288	1	96	288	4
TAP	58	192	0
TAP	58	192	7
TAP	58	288	2
STR	58	336	2
SI_	58	336	2	96	48	7
TAP	59	192	0
HLD	59	192	6	96
TAP	59	288	4
HLD	60	0	1	96
TAP	60	0	7
TAP	60	96	3
TAP	60	192	0
TAP	60	192	7
TAP	60	288	2
STR	60	336	2
SI_	60	336	2	96	48	7
TAP	61	192	2
HLD	61	192	6	96
TAP	61	288	7
HLD	62	0	1	96
TAP	62	0	5
TAP	62	96	0
TAP	62	192	0
TAP	62	192	7
TAP	62	288	2
STR	62	336	2
SI_	62	336	2	96	48	7
TAP	63	192	5
HLD	63	288	0	96
TAP	64	0	2
HLD	64	96	7	96
TAP	64	192	0
TAP	64	336	1
TAP	64	336	6
TAP	65	0	1
TAP	65	0	6
TAP	65	144	0
TAP	65	144	7
TAP	65	192	0
TAP	65	192	7
TAP	65	288	2
TAP	65	288	3
STR	65	336	2
SI_	65	336	2	96	288	7
STR	65	336	3
SI_	65	336	3	96	288	6

T_REC_TAP	159
T_REC_BRK	6
T_REC_XTP	0
T_REC_HLD	24
T_REC_XHO	0
T_REC_STR	30
T_REC_BST	0
T_REC_XST	0
T_REC_TTP	0
T_REC_THO	0
T_REC_SLD	30
T_REC_ALL	249
T_NUM_TAP	189
T_NUM_BRK	6
T_NUM_HLD	24
T_NUM_SLD	30
T_NUM_ALL	249
T_JUDGE_TAP	195
T_JUDGE_HLD	64
T_JUDGE_SLD	30
T_JUDGE_ALL	289
TTM_EACHPAIRS	41
TTM_SCR_TAP	94500
TTM_SCR_BRK	15600
TTM_SCR_HLD	24000
TTM_SCR_SLD	45000
TTM_SCR_ALL	179100
TTM_SCR_S	173150
TTM_SCR_SS	178500
TTM_RAT_ACV	10033

