VERSION	0.00.00	1.03.00
FES_MODE	0
BPM_DEF	155.000	155.000	155.000	155.000
MET_DEF	4	4
RESOLUTION	384
CLK_DEF	384
COMPATIBLE_CODE	MA2

BPM	0	0	155.000
MET	0	0	4	4

TAP	3	96	1
TAP	3	288	2
TAP	4	96	3
TAP	4	288	4
TAP	5	96	5
TAP	5	288	4
TAP	6	96	3
TAP	6	288	2
TAP	7	96	1
TAP	7	288	0
TAP	8	96	7
TAP	8	288	6
TAP	9	96	7
TAP	9	288	0
HLD	10	0	7	288
STR	11	0	0
SI_	11	0	0	96	288	3
STR	13	0	7
SI_	13	0	7	96	288	4
STR	15	0	1
SI_	15	0	1	96	288	6
STR	17	0	5
SI_	17	0	5	96	288	2
TAP	19	0	0
TAP	19	192	0
TAP	20	0	7
TAP	20	192	7
TAP	21	0	6
TAP	21	192	6
TAP	22	0	5
TAP	22	192	5
TAP	23	0	4
TAP	23	192	4
TAP	24	0	3
TAP	24	192	3
TAP	25	0	2
TAP	25	192	2
TAP	26	0	3
BRK	26	192	4
TAP	27	0	5
TAP	27	96	5
TAP	27	192	5
HLD	28	0	6	192
TAP	29	0	7
TAP	29	96	7
TAP	29	192	7
HLD	30	0	0	192
TAP	31	0	1
TAP	31	96	1
TAP	31	192	1
HLD	32	0	2	192
STR	33	0	3
SI_	33	0	3	96	288	7
STR	35	0	0
SI_	35	0	0	96	288	4
HLD	37	0	6	192
HLD	38	0	5	192
TAP	39	0	4
TAP	39	192	4
TAP	40	0	3
TAP	40	192	3
TAP	41	0	2
TAP	41	96	2
TAP	41	192	1
TAP	41	288	1
TAP	42	0	0
TAP	42	0	7
STR	43	0	7
SI_	43	0	7	96	288	3
HLD	45	0	1	192
HLD	46	0	2	192
TAP	47	0	3
TAP	47	96	3
TAP	47	192	3
TAP	48	0	4
TAP	48	96	4
TAP	48	192	4
TAP	49	0	5
TAP	49	96	5
TAP	49	192	6
HLD	50	0	0	192
HLD	50	0	7	192
TAP	51	0	7
TAP	51	96	7
TAP	51	192	0
TAP	52	0	1
TAP	52	96	1
TAP	52	192	0
TAP	52	192	1
TAP	53	0	0
TAP	53	96	0
TAP	53	192	7
TAP	54	0	6
TAP	54	96	6
TAP	54	192	6
TAP	54	192	7
TAP	55	0	6
TAP	55	96	6
TAP	55	192	7
TAP	56	0	1
TAP	56	96	1
TAP	56	192	0
HLD	57	0	7	384
HLD	59	0	0	96
TAP	59	192	0
TAP	59	288	0
HLD	60	0	7	96
BRK	60	192	0
BRK	60	192	7
HLD	61	0	1	96
TAP	61	192	1
TAP	61	288	1
HLD	62	0	2	96
BRK	62	192	2
BRK	62	192	3
TAP	63	0	3
TAP	63	96	3
TAP	63	192	3
TAP	64	0	4
TAP	64	96	4
TAP	64	192	4
TAP	65	0	3
TAP	65	0	4
TAP	65	192	2
TAP	65	192	5
HLD	66	0	1	576
HLD	66	0	6	576
BRK	67	288	0
BRK	67	288	7

T_REC_TAP	91
T_REC_BRK	7
T_REC_XTP	0
T_REC_HLD	17
T_REC_XHO	0
T_REC_STR	7
T_REC_BST	0
T_REC_XST	0
T_REC_TTP	0
T_REC_THO	0
T_REC_SLD	7
T_REC_ALL	129
T_NUM_TAP	98
T_NUM_BRK	7
T_NUM_HLD	17
T_NUM_SLD	7
T_NUM_ALL	129
T_JUDGE_TAP	105
T_JUDGE_HLD	82
T_JUDGE_SLD	7
T_JUDGE_ALL	194
TTM_EACHPAIRS	10
TTM_SCR_TAP	49000
TTM_SCR_BRK	18200
TTM_SCR_HLD	17000
TTM_SCR_SLD	10500
TTM_SCR_ALL	94700
TTM_SCR_S	91200
TTM_SCR_SS	94000
TTM_RAT_ACV	10074

