VERSION	0.00.00	1.03.00
FES_MODE	0
BPM_DEF	172.000	172.000	172.000	172.000
MET_DEF	4	4
RESOLUTION	384
CLK_DEF	384
COMPATIBLE_CODE	MA2

BPM	0	0	172.000
MET	0	0	4	4

TAP	2	240	4
STR	2	288	4
SI_	2	288	4	96	48	0
BRK	3	0	7
TAP	3	48	6
TAP	3	96	5
STR	3	144	4
SCR	3	144	4	96	48	7
TAP	3	192	3
TAP	3	240	2
TAP	3	336	1
TAP	3	336	6
TAP	4	48	2
STR	4	96	3
SCL	4	96	3	96	48	0
TAP	4	144	4
TAP	4	192	5
TAP	4	240	6
TAP	5	0	7
TAP	5	48	6
TAP	5	96	5
STR	5	144	4
SCR	5	144	4	96	48	7
TAP	5	192	3
TAP	5	240	2
STR	6	0	0
SI_	6	0	0	96	48	5
BRK	6	0	7
STR	6	96	0
SI_	6	96	0	96	48	4
BRK	6	96	6
STR	6	192	0
SI_	6	192	0	96	48	3
BRK	6	192	5
TAP	6	288	0
BRK	6	288	4
TAP	7	0	0
TAP	7	48	1
TAP	7	96	2
STR	7	144	3
SCL	7	144	3	96	48	0
TAP	7	192	4
TAP	7	240	5
TAP	7	336	1
TAP	7	336	6
TAP	8	48	5
STR	8	96	4
SCR	8	96	4	96	48	7
TAP	8	144	3
TAP	8	192	2
TAP	8	240	1
TAP	9	0	0
TAP	9	48	1
TAP	9	96	2
STR	9	144	3
SCL	9	144	3	96	48	0
TAP	9	192	4
TAP	9	240	5
BRK	10	0	0
STR	10	0	7
SI_	10	0	7	96	48	2
BRK	10	96	1
STR	10	96	7
SI_	10	96	7	96	48	3
BRK	10	192	2
STR	10	192	7
SI_	10	192	7	96	48	4
BRK	10	288	3
TAP	10	288	7
HLD	11	0	0	480
TAP	12	0	6
TAP	12	96	6
TAP	12	192	6
TAP	12	216	1
TAP	12	240	6
TAP	12	264	1
BRK	12	288	0
BRK	12	288	7
TAP	13	0	0
TAP	13	48	5
TAP	13	96	7
TAP	13	144	2
TAP	13	192	3
TAP	13	192	4
TAP	13	240	3
TAP	13	288	0
TAP	13	336	7
TAP	14	0	0
TAP	14	0	7
TAP	14	48	2
TAP	14	96	4
TAP	14	144	6
TAP	14	192	6
TAP	14	192	7
TAP	14	240	1
TAP	14	288	7
TAP	14	336	0
TAP	15	0	0
TAP	15	0	1
TAP	15	48	5
TAP	15	96	6
TAP	15	144	2
TAP	15	192	0
TAP	15	192	7
TAP	15	240	3
STR	15	288	0
SI_	15	288	0	96	48	3
STR	16	0	7
SI_	16	0	7	96	48	4
STR	16	96	1
SI_	16	96	1	96	48	5
STR	16	192	6
SI_	16	192	6	96	48	2
HLD	17	0	5	192
TAP	17	48	4
TAP	17	96	3
TAP	17	144	4
HLD	17	192	2	192
TAP	17	240	0
TAP	17	288	1
TAP	17	336	0
HLD	18	0	6	192
TAP	18	48	5
TAP	18	96	4
TAP	18	144	5
HLD	18	192	1	192
TAP	18	240	2
TAP	18	288	3
TAP	18	336	2
HLD	19	0	7	96
TAP	19	48	0
TAP	19	96	1
TAP	19	144	5
HLD	19	192	2	96
TAP	19	240	6
STR	19	288	7
SI_	19	288	7	96	48	4
STR	20	0	0
SI_	20	0	0	96	48	3
BRK	20	0	7
BRK	20	96	0
STR	20	96	7
SI_	20	96	7	96	48	4
STR	20	192	0
SI_	20	192	0	96	48	3
BRK	20	192	7
BRK	20	288	0
BRK	20	288	7
TAP	21	0	0
TAP	21	24	7
TAP	21	48	0
TAP	21	96	1
TAP	21	144	3
TAP	21	168	4
TAP	21	192	3
TAP	21	240	2
TAP	21	288	7
TAP	21	336	6
TAP	22	0	2
TAP	22	24	3
TAP	22	48	2
TAP	22	96	1
TAP	22	144	0
TAP	22	168	1
TAP	22	192	2
TAP	22	240	7
TAP	22	264	6
TAP	22	288	5
TAP	23	0	6
TAP	23	0	7
TAP	23	48	6
TAP	23	96	6
TAP	23	96	7
TAP	23	144	4
TAP	23	192	2
TAP	23	192	3
TAP	23	240	3
TAP	23	288	2
TAP	23	288	3
TAP	23	336	1
TAP	24	0	5
TAP	24	24	4
TAP	24	48	5
TAP	24	96	6
TAP	24	144	7
TAP	24	168	0
TAP	24	192	7
TAP	24	240	7
TAP	24	288	6
TAP	25	0	0
TAP	25	24	7
TAP	25	48	0
TAP	25	72	6
TAP	25	96	1
TAP	25	144	4
TAP	25	168	3
TAP	25	192	4
TAP	25	216	2
TAP	25	240	5
TAP	25	288	0
TAP	25	336	1
TAP	26	0	6
TAP	26	24	7
TAP	26	48	5
TAP	26	72	7
TAP	26	96	6
TAP	26	144	2
TAP	26	168	3
TAP	26	192	1
TAP	26	216	3
TAP	26	240	2
TAP	26	288	6
TAP	26	312	7
TAP	26	336	5
TAP	27	0	0
TAP	27	0	1
TAP	27	48	1
TAP	27	96	0
TAP	27	96	1
TAP	27	144	3
TAP	27	192	4
TAP	27	192	5
TAP	27	240	4
TAP	27	288	4
TAP	27	288	5
TAP	28	0	1
TAP	28	0	6
STR	28	48	3
SI_	28	48	3	96	48	0
STR	28	48	4
SI_	28	48	4	96	48	7
TAP	28	96	1
TAP	28	96	6
BRK	28	144	3
BRK	28	144	4
HLD	29	0	1	96
TAP	29	0	7
TAP	29	48	6
HLD	29	96	5	96
TAP	29	144	1
HLD	29	192	2	96
TAP	29	240	6
HLD	29	288	7	96
TAP	29	336	0
HLD	30	0	1	96
TAP	30	48	6
HLD	30	96	5	96
TAP	30	144	2
HLD	30	192	3	96
TAP	30	240	4
HLD	30	288	5	96
TAP	30	336	2
TAP	31	0	1
TAP	31	48	5
TAP	31	96	3
TAP	31	96	7
TAP	31	192	2
TAP	31	240	6
TAP	31	288	0
TAP	31	288	4
TAP	32	0	6
TAP	32	48	1
TAP	32	96	0
TAP	32	96	7
BRK	32	144	2
BRK	32	144	5
TAP	32	240	7
TAP	32	264	1
TAP	32	288	6
HLD	33	0	2	96
TAP	33	0	4
TAP	33	48	5
HLD	33	96	6	96
TAP	33	144	2
HLD	33	192	1	96
TAP	33	240	5
HLD	33	288	4	96
TAP	33	336	3
HLD	34	0	2	96
TAP	34	48	5
HLD	34	96	6	96
TAP	34	144	1
HLD	34	192	0	96
TAP	34	240	7
HLD	34	288	6	96
TAP	34	336	1
TAP	35	0	2
TAP	35	48	6
TAP	35	96	0
TAP	35	96	4
TAP	35	192	1
TAP	35	240	5
TAP	35	288	3
TAP	35	288	7
TAP	36	0	5
TAP	36	48	2
TAP	36	96	3
TAP	36	96	4
BRK	36	144	1
BRK	36	144	6
TAP	36	240	0
TAP	36	264	6
TAP	36	288	1
HLD	37	0	6	96
TAP	37	0	7
TAP	37	48	0
HLD	37	96	2	96
TAP	37	144	4
HLD	37	192	5	96
TAP	37	240	3
HLD	37	288	0	96
TAP	37	336	4
HLD	38	0	6	96
TAP	38	48	1
HLD	38	96	2	96
TAP	38	144	7
HLD	38	192	4	96
TAP	38	240	1
HLD	38	288	2	96
TAP	38	336	7
HLD	39	0	6	96
TAP	39	48	0
HLD	39	96	2	96
TAP	39	144	7
HLD	39	192	5	96
TAP	39	240	3
HLD	39	288	0	96
TAP	39	336	4
HLD	40	0	6	96
TAP	40	48	2
TAP	40	96	3
HLD	40	144	1	144
TAP	40	240	5
TAP	40	288	6
BRK	40	336	3
BRK	40	336	7
TAP	41	96	6
TAP	41	192	7
TAP	41	240	4
TAP	41	288	0
TAP	41	336	4
TAP	42	0	1
TAP	42	48	5
TAP	42	96	2
TAP	42	144	6
TAP	42	192	3
TAP	42	240	7
STR	42	288	4
SUL	42	288	4	96	288	1
HLD	42	336	0	288
STR	43	288	0
SUL	43	288	0	96	288	5
TAP	43	336	0
STR	45	0	7
SCL	45	0	7	96	48	3
TAP	45	192	3
TAP	45	216	2
TAP	45	240	1
TAP	45	264	0
BRK	45	288	3
BRK	45	288	7
BRK	46	0	1
BRK	46	0	5
TAP	46	192	2
TAP	46	192	5
STR	46	240	0
SI_	46	240	0	96	48	3
STR	46	240	7
SI_	46	240	7	96	48	4
BRK	46	336	0
BRK	46	336	7
TAP	47	96	3
TAP	47	96	4
TAP	47	192	5
TAP	47	216	3
TAP	47	240	6
TAP	47	264	2
TAP	47	288	7
TAP	48	0	0
TAP	48	48	1
TAP	48	48	7
TAP	48	96	6
TAP	48	144	1
TAP	48	144	7
TAP	48	192	0
TAP	48	240	1
TAP	48	240	7
TAP	48	288	6
TAP	48	336	1
TAP	48	336	5
STR	49	0	6
SI_	49	0	6	96	48	3
STR	49	0	7
SI_	49	0	7	96	48	2
BRK	49	96	6
BRK	49	96	7
STR	49	192	0
SI_	49	192	0	96	48	5
STR	49	192	1
SI_	49	192	1	96	48	4
BRK	49	288	0
BRK	49	288	1
TAP	50	0	0
TAP	50	0	7
TAP	50	192	2
TAP	50	192	5
STR	50	240	0
SCR	50	240	0	96	48	3
STR	50	240	7
SCL	50	240	7	96	48	4
BRK	50	336	0
BRK	50	336	7
TAP	51	96	3
TAP	51	96	4
TAP	51	192	2
TAP	51	216	4
TAP	51	240	1
TAP	51	264	5
TAP	51	288	0
TAP	52	0	3
TAP	52	48	2
TAP	52	48	4
TAP	52	96	5
TAP	52	144	2
TAP	52	144	4
TAP	52	192	3
TAP	52	240	2
TAP	52	240	4
TAP	52	288	5
TAP	52	336	2
TAP	52	336	4
STR	53	0	0
SI_	53	0	0	96	48	5
STR	53	0	1
SI_	53	0	1	96	48	4
BRK	53	96	0
BRK	53	96	1
STR	53	192	6
SI_	53	192	6	96	48	3
STR	53	192	7
SI_	53	192	7	96	48	2
BRK	53	288	6
BRK	53	288	7
TAP	54	0	0
TAP	54	0	7
TAP	54	192	2
TAP	54	192	5
STR	54	240	0
SI_	54	240	0	96	48	4
STR	54	240	7
SI_	54	240	7	96	48	3
BRK	54	336	0
BRK	54	336	7
TAP	55	96	3
TAP	55	96	4
TAP	55	192	1
TAP	55	216	4
TAP	55	240	0
TAP	55	264	4
TAP	55	288	7
TAP	56	0	0
TAP	56	0	7
TAP	56	48	2
TAP	56	48	4
TAP	56	96	1
TAP	56	96	6
TAP	56	144	3
TAP	56	144	5
TAP	56	192	2
TAP	56	192	7
TAP	56	240	0
TAP	56	240	4
TAP	56	288	3
TAP	56	288	6
TAP	56	336	1
TAP	56	336	5
BRK	57	0	3
BRK	57	0	7
TAP	57	48	6
BRK	57	96	1
BRK	57	96	5
TAP	57	144	2
BRK	57	192	3
BRK	57	192	7
TAP	57	216	6
TAP	57	240	5
TAP	57	264	4
STR	57	288	3
SI_	57	288	3	96	48	7
BRK	57	288	7
TAP	58	0	1
TAP	58	192	2
TAP	58	192	5
STR	58	240	0
SI_	58	240	0	96	48	5
STR	58	240	7
SI_	58	240	7	96	48	2
BRK	58	336	0
BRK	58	336	7
TAP	59	96	2
TAP	59	96	5
TAP	59	192	6
TAP	59	216	3
TAP	59	240	7
TAP	59	264	3
TAP	59	288	0
TAP	60	0	0
TAP	60	0	7
TAP	60	48	3
TAP	60	48	5
TAP	60	96	1
TAP	60	96	6
TAP	60	144	2
TAP	60	144	4
TAP	60	192	0
TAP	60	192	5
TAP	60	240	3
TAP	60	240	7
TAP	60	288	1
TAP	60	288	4
TAP	60	336	2
TAP	60	336	6
BRK	61	0	0
BRK	61	0	4
TAP	61	48	1
BRK	61	96	2
BRK	61	96	6
TAP	61	144	5
BRK	61	192	0
BRK	61	192	4
TAP	61	216	1
TAP	61	240	2
TAP	61	264	3
BRK	61	288	0
STR	61	288	4
SI_	61	288	4	96	672	0
HLD	62	0	7	672
BRK	64	0	0
BRK	64	0	4
BRK	64	48	2
BRK	64	48	6
TAP	65	0	6
TAP	65	24	0
TAP	65	48	7
TAP	65	72	0
TAP	65	96	6
TAP	65	120	0
TAP	65	144	7
TAP	65	168	0
TAP	65	192	4
TAP	65	216	2
TAP	65	240	3
TAP	65	264	2
BRK	65	288	4
TAP	66	0	1
TAP	66	0	7
TAP	66	48	4
TAP	66	96	0
TAP	66	96	6
TAP	66	144	3
TAP	66	192	1
TAP	66	192	7
TAP	66	240	4
STR	66	288	0
SI_	66	288	0	96	48	5
TAP	66	288	6
STR	67	0	0
SCR	67	0	0	96	48	3
STR	67	96	0
SI_	67	96	0	96	48	4
STR	67	192	0
SCL	67	192	0	96	48	5
TAP	68	0	1
TAP	68	0	7
TAP	68	48	4
TAP	68	96	0
TAP	68	96	6
TAP	68	144	3
TAP	68	192	1
TAP	68	192	7
TAP	68	240	4
STR	68	288	0
SCR	68	288	0	96	48	3
TAP	68	288	6
STR	69	0	0
SI_	69	0	0	96	48	5
BRK	69	0	7
STR	69	96	0
SI_	69	96	0	96	48	4
BRK	69	96	1
STR	69	192	0
SCL	69	192	0	96	48	5
BRK	69	192	6
BRK	69	288	2
TAP	70	0	0
TAP	70	0	6
TAP	70	48	3
TAP	70	96	1
TAP	70	96	7
TAP	70	144	4
TAP	70	192	0
TAP	70	192	6
TAP	70	240	3
TAP	70	288	1
STR	70	288	7
SI_	70	288	7	96	48	2
STR	71	0	7
SCL	71	0	7	96	48	4
STR	71	96	7
SI_	71	96	7	96	48	3
STR	71	192	7
SCR	71	192	7	96	48	2
TAP	72	0	0
TAP	72	0	6
TAP	72	48	3
TAP	72	96	1
TAP	72	96	7
TAP	72	144	4
TAP	72	192	0
TAP	72	192	6
TAP	72	240	3
TAP	72	288	1
STR	72	288	7
SCL	72	288	7	96	48	4
BRK	73	0	0
STR	73	0	7
SI_	73	0	7	96	48	2
BRK	73	96	6
STR	73	96	7
SI_	73	96	7	96	48	3
BRK	73	192	1
STR	73	192	7
SCR	73	192	7	96	48	2
BRK	73	288	5
STR	74	0	6
SCL	74	0	6	96	384	0
STR	74	0	7
SUL	74	0	7	96	384	7
TAP	75	192	6
TAP	75	216	1
TAP	75	240	6
TAP	75	264	1
BRK	75	288	0
BRK	75	288	7
TAP	76	0	1
TAP	76	0	5
TAP	76	48	0
TAP	76	48	4
TAP	76	96	3
TAP	76	96	7
TAP	76	144	2
TAP	76	144	6
TAP	76	192	3
TAP	76	192	7
TAP	76	240	0
TAP	76	240	4
TAP	76	288	1
TAP	76	288	5
BRK	76	336	2
BRK	76	336	6

T_REC_TAP	422
T_REC_BRK	75
T_REC_XTP	0
T_REC_HLD	39
T_REC_XHO	0
T_REC_STR	62
T_REC_BST	0
T_REC_XST	0
T_REC_TTP	0
T_REC_THO	0
T_REC_SLD	62
T_REC_ALL	660
T_NUM_TAP	484
T_NUM_BRK	75
T_NUM_HLD	39
T_NUM_SLD	62
T_NUM_ALL	660
T_JUDGE_TAP	559
T_JUDGE_HLD	111
T_JUDGE_SLD	62
T_JUDGE_ALL	732
TTM_EACHPAIRS	138
TTM_SCR_TAP	242000
TTM_SCR_BRK	195000
TTM_SCR_HLD	39000
TTM_SCR_SLD	93000
TTM_SCR_ALL	569000
TTM_SCR_S	544700
TTM_SCR_SS	561500
TTM_RAT_ACV	10133

