VERSION	0.00.00	1.03.00
FES_MODE	0
BPM_DEF	172.000	172.000	172.000	172.000
MET_DEF	4	4
RESOLUTION	384
CLK_DEF	384
COMPATIBLE_CODE	MA2

BPM	0	0	172.000
MET	0	0	4	4

TAP	2	240	0
BRK	2	288	7
TAP	3	0	1
TAP	3	48	0
TAP	3	96	1
TAP	3	192	6
TAP	3	240	6
TAP	3	240	7
TAP	3	336	3
TAP	3	336	4
TAP	4	48	5
TAP	4	96	4
TAP	4	96	5
TAP	4	192	2
TAP	4	240	2
TAP	4	240	3
TAP	5	0	6
TAP	5	48	7
TAP	5	96	6
TAP	5	192	1
TAP	5	240	0
TAP	5	240	1
TAP	6	0	2
TAP	6	0	3
TAP	6	96	4
TAP	6	96	5
TAP	6	192	6
TAP	6	192	7
TAP	6	288	0
TAP	6	288	1
TAP	7	0	2
TAP	7	48	3
TAP	7	96	2
TAP	7	192	5
TAP	7	240	4
TAP	7	240	5
TAP	7	336	0
TAP	7	336	7
TAP	8	48	1
TAP	8	96	0
TAP	8	96	1
TAP	8	192	6
TAP	8	240	6
TAP	8	240	7
TAP	9	0	5
TAP	9	48	4
TAP	9	96	5
TAP	9	192	2
TAP	9	240	2
TAP	9	240	3
TAP	10	0	0
TAP	10	0	7
TAP	10	96	5
TAP	10	96	6
TAP	10	192	3
TAP	10	192	4
TAP	10	288	1
TAP	10	288	2
BRK	11	0	0
BRK	11	0	7
TAP	12	288	3
TAP	12	336	2
HLD	13	0	1	96
TAP	13	96	0
TAP	13	192	7
TAP	13	240	6
TAP	13	288	5
TAP	13	336	4
TAP	14	48	2
TAP	14	96	1
TAP	14	96	3
TAP	14	192	4
TAP	14	240	5
TAP	14	288	4
TAP	14	288	6
TAP	15	0	7
STR	15	48	0
SI_	15	48	0	96	48	5
STR	15	144	6
SI_	15	144	6	96	48	2
STR	15	240	1
SI_	15	240	1	96	48	4
TAP	16	48	5
TAP	16	96	4
TAP	16	96	6
TAP	16	192	3
TAP	16	240	2
TAP	16	288	1
TAP	16	288	3
TAP	17	0	0
TAP	17	0	4
TAP	17	96	3
TAP	17	96	7
TAP	17	192	2
TAP	17	240	5
TAP	17	288	1
TAP	17	336	6
TAP	18	48	7
TAP	18	96	0
TAP	18	144	6
TAP	18	192	1
TAP	18	240	5
TAP	18	288	2
HLD	18	336	4	336
TAP	19	96	0
TAP	19	288	0
TAP	20	0	5
BRK	20	0	7
BRK	20	96	0
TAP	20	96	4
BRK	20	192	1
TAP	20	192	3
TAP	20	288	4
TAP	20	336	5
HLD	21	0	6	96
TAP	21	96	7
TAP	21	192	0
TAP	21	240	1
TAP	21	288	2
TAP	21	336	3
TAP	22	48	5
TAP	22	96	4
TAP	22	96	6
TAP	22	192	3
TAP	22	240	2
TAP	22	288	1
TAP	22	288	3
TAP	23	0	0
STR	23	48	7
SI_	23	48	7	96	48	2
STR	23	144	1
SI_	23	144	1	96	48	5
STR	23	240	6
SI_	23	240	6	96	48	3
TAP	24	48	2
TAP	24	96	1
TAP	24	96	3
TAP	24	192	4
TAP	24	240	5
TAP	24	288	4
TAP	24	288	6
TAP	25	0	3
TAP	25	0	7
TAP	25	96	0
TAP	25	96	4
TAP	25	192	5
TAP	25	240	2
TAP	25	288	6
TAP	25	336	1
TAP	26	48	0
TAP	26	96	7
TAP	26	144	1
TAP	26	192	6
TAP	26	240	2
TAP	26	288	5
HLD	26	336	3	336
TAP	27	96	7
TAP	27	288	7
BRK	28	0	1
BRK	28	48	0
BRK	28	96	7
STR	28	144	6
SI_	28	144	6	96	48	2
BRK	28	288	0
HLD	29	0	1	96
HLD	29	96	2	96
HLD	29	192	3	96
HLD	29	288	4	96
HLD	30	0	6	96
HLD	30	96	5	96
HLD	30	192	4	96
HLD	30	288	3	96
HLD	31	0	0	96
HLD	31	96	2	96
HLD	31	192	4	96
HLD	31	288	6	96
TAP	32	0	7
TAP	32	48	0
HLD	32	96	1	192
HLD	32	144	2	144
HLD	33	0	4	96
HLD	33	96	5	96
HLD	33	192	6	96
HLD	33	288	7	96
HLD	34	0	3	96
HLD	34	96	2	96
HLD	34	192	1	96
HLD	34	288	0	96
HLD	35	0	5	96
HLD	35	96	4	96
HLD	35	192	3	96
TAP	35	288	1
TAP	35	336	0
TAP	35	336	2
TAP	36	48	7
TAP	36	96	6
TAP	36	144	5
TAP	36	144	7
TAP	36	240	0
TAP	36	288	0
TAP	36	288	7
HLD	37	0	6	96
HLD	37	96	5	96
HLD	37	192	4	96
HLD	37	288	3	96
HLD	38	0	1	96
HLD	38	96	2	96
HLD	38	192	3	96
HLD	38	288	4	96
HLD	39	0	7	96
HLD	39	96	5	96
HLD	39	192	3	96
HLD	39	288	1	96
TAP	40	0	0
TAP	40	48	7
HLD	40	96	6	192
HLD	40	144	5	144
TAP	41	0	3
TAP	41	0	4
TAP	41	96	0
TAP	41	96	1
TAP	41	192	6
TAP	41	192	7
TAP	41	288	4
TAP	41	336	3
TAP	42	0	2
TAP	42	0	5
TAP	42	96	0
TAP	42	96	7
TAP	42	192	3
TAP	42	192	4
HLD	42	288	2	288
STR	42	336	1
SCL	42	336	1	96	144	3
HLD	43	288	5	288
STR	43	336	6
SCR	43	336	6	96	144	4
TAP	44	288	2
TAP	44	288	5
BRK	45	0	0
BRK	45	0	7
BRK	45	192	3
BRK	45	240	5
BRK	45	288	7
STR	46	0	6
SI_	46	0	6	96	48	2
STR	46	0	7
SI_	46	0	7	96	48	2
TAP	46	192	1
STR	46	240	7
SI_	46	240	7	96	48	3
TAP	46	336	0
TAP	47	48	1
TAP	47	96	2
TAP	47	96	3
TAP	47	192	7
TAP	47	240	6
TAP	47	288	4
TAP	47	288	5
HLD	48	0	3	96
TAP	48	96	2
HLD	48	144	4	96
TAP	48	240	5
TAP	48	336	3
TAP	48	336	7
TAP	49	48	0
TAP	49	48	4
TAP	49	96	1
TAP	49	96	5
TAP	49	144	2
TAP	49	144	6
TAP	49	192	3
TAP	49	192	7
TAP	49	288	0
TAP	49	288	4
STR	50	0	0
SI_	50	0	0	96	48	5
STR	50	0	1
SI_	50	0	1	96	48	5
TAP	50	192	6
STR	50	240	0
SI_	50	240	0	96	48	4
TAP	50	336	7
TAP	51	48	6
TAP	51	96	4
TAP	51	96	5
TAP	51	192	0
TAP	51	240	1
TAP	51	288	2
TAP	51	288	3
HLD	52	0	4	96
TAP	52	96	5
HLD	52	144	3	96
TAP	52	240	2
STR	53	0	1
SI_	53	0	1	96	48	3
STR	53	96	7
SI_	53	96	7	96	48	5
STR	53	192	0
SI_	53	192	0	96	48	4
STR	54	0	2
SI_	54	0	2	96	48	6
STR	54	0	3
SI_	54	0	3	96	48	6
TAP	54	192	5
STR	54	240	4
SI_	54	240	4	96	48	0
TAP	54	336	7
TAP	55	48	6
TAP	55	96	5
TAP	55	96	7
TAP	55	192	0
TAP	55	240	1
TAP	55	288	0
TAP	55	288	2
HLD	56	0	0	96
TAP	56	96	1
HLD	56	144	7	96
TAP	56	240	6
TAP	56	336	0
TAP	56	336	4
TAP	57	48	3
TAP	57	48	7
TAP	57	96	2
TAP	57	96	6
TAP	57	144	1
TAP	57	144	5
TAP	57	192	0
TAP	57	192	4
TAP	57	288	3
TAP	57	288	7
STR	58	0	4
SI_	58	0	4	96	48	1
STR	58	0	5
SI_	58	0	5	96	48	1
TAP	58	192	2
STR	58	240	3
SI_	58	240	3	96	48	7
TAP	58	336	0
TAP	59	48	1
TAP	59	48	6
TAP	59	96	0
TAP	59	96	7
STR	59	192	1
SCL	59	192	1	96	48	6
STR	59	192	5
SCL	59	192	5	96	48	2
STR	60	0	6
SI_	60	0	6	96	48	2
STR	60	192	3
SCL	60	192	3	96	48	0
STR	60	192	7
SCL	60	192	7	96	48	4
STR	61	0	0
SI_	61	0	0	96	48	3
STR	61	0	4
SI_	61	0	4	96	48	7
STR	61	192	7
SI_	61	192	7	96	48	3
STR	61	288	0
SI_	61	288	0	96	48	4
STR	62	0	1
SCL	62	0	1	96	576	2
BRK	64	0	0
BRK	64	48	0
TAP	65	0	1
TAP	65	48	2
TAP	65	96	3
TAP	65	144	4
TAP	65	192	5
TAP	65	240	6
BRK	65	288	0
BRK	65	288	7
TAP	66	0	1
TAP	66	48	0
TAP	66	96	2
TAP	66	96	7
TAP	66	192	6
TAP	66	240	0
TAP	66	240	5
TAP	66	336	3
TAP	66	336	4
TAP	67	48	5
TAP	67	96	4
TAP	67	96	6
TAP	67	192	2
TAP	67	240	1
TAP	67	240	3
TAP	68	0	6
TAP	68	48	7
TAP	68	96	0
TAP	68	96	5
TAP	68	192	1
TAP	68	240	2
TAP	68	240	7
STR	69	0	0
SI_	69	0	0	96	48	5
STR	69	0	1
SI_	69	0	1	96	48	4
STR	69	192	6
SI_	69	192	6	96	48	3
STR	69	192	7
SI_	69	192	7	96	48	2
TAP	70	0	5
TAP	70	48	4
TAP	70	96	3
TAP	70	96	6
TAP	70	192	2
TAP	70	240	1
TAP	70	240	4
TAP	70	336	0
TAP	70	336	7
TAP	71	48	1
TAP	71	96	0
TAP	71	96	2
TAP	71	192	6
TAP	71	240	5
TAP	71	240	7
TAP	72	0	2
TAP	72	48	3
TAP	72	96	1
TAP	72	96	4
TAP	72	192	5
TAP	72	240	3
TAP	72	240	6
STR	73	0	0
SI_	73	0	0	96	48	5
STR	73	0	7
SI_	73	0	7	96	48	2
STR	73	192	3
SI_	73	192	3	96	48	6
STR	73	192	4
SI_	73	192	4	96	48	1
BRK	74	0	0
BRK	74	0	7
TAP	76	48	0
TAP	76	96	7
TAP	76	144	1
TAP	76	144	6
STR	76	192	2
SI_	76	192	2	96	48	6
STR	76	240	5
SI_	76	240	5	96	48	1

T_REC_TAP	283
T_REC_BRK	21
T_REC_XTP	0
T_REC_HLD	51
T_REC_XHO	0
T_REC_STR	44
T_REC_BST	0
T_REC_XST	0
T_REC_TTP	0
T_REC_THO	0
T_REC_SLD	44
T_REC_ALL	443
T_NUM_TAP	327
T_NUM_BRK	21
T_NUM_HLD	51
T_NUM_SLD	44
T_NUM_ALL	443
T_JUDGE_TAP	348
T_JUDGE_HLD	126
T_JUDGE_SLD	44
T_JUDGE_ALL	518
TTM_EACHPAIRS	93
TTM_SCR_TAP	163500
TTM_SCR_BRK	54600
TTM_SCR_HLD	51000
TTM_SCR_SLD	66000
TTM_SCR_ALL	335100
TTM_SCR_S	323050
TTM_SCR_SS	333000
TTM_RAT_ACV	10063

