VERSION	0.00.00	1.03.00
FES_MODE	0
BPM_DEF	172.000	172.000	172.000	172.000
MET_DEF	4	4
RESOLUTION	384
CLK_DEF	384
COMPATIBLE_CODE	MA2

BPM	0	0	172.000
MET	0	0	4	4

TAP	3	0	1
TAP	3	96	0
TAP	3	192	0
TAP	3	192	1
TAP	4	0	6
TAP	4	96	7
TAP	4	192	6
TAP	4	192	7
TAP	5	0	0
TAP	5	96	7
TAP	5	192	0
TAP	5	192	7
TAP	6	0	0
TAP	6	0	7
TAP	6	96	0
TAP	6	96	7
TAP	6	192	1
TAP	6	192	6
TAP	6	288	1
TAP	6	288	6
TAP	7	0	2
TAP	7	96	3
TAP	7	192	2
TAP	7	192	3
TAP	8	0	5
TAP	8	96	4
TAP	8	192	4
TAP	8	192	5
TAP	9	0	3
TAP	9	96	4
TAP	9	192	3
TAP	9	192	4
TAP	10	0	3
TAP	10	0	4
TAP	10	96	3
TAP	10	96	4
TAP	10	192	2
TAP	10	192	5
TAP	10	288	2
TAP	10	288	5
BRK	11	0	1
BRK	11	0	6
STR	13	0	7
SI_	13	0	7	96	120	5
STR	14	0	0
SI_	14	0	0	96	120	2
STR	15	0	7
SV_	15	0	7	96	168	5
STR	16	0	0
SV_	16	0	0	96	168	2
TAP	17	0	6
TAP	17	0	7
TAP	17	192	0
TAP	17	192	1
TAP	18	0	5
TAP	18	0	6
TAP	18	192	1
TAP	18	192	2
TAP	19	0	4
TAP	19	0	5
TAP	19	192	2
TAP	19	192	3
TAP	20	0	1
TAP	20	0	6
TAP	20	96	1
TAP	20	96	6
TAP	20	192	2
TAP	20	192	5
TAP	20	288	2
TAP	20	288	5
STR	21	0	4
SI_	21	0	4	96	120	6
STR	22	0	3
SI_	22	0	3	96	120	1
STR	23	0	4
SV_	23	0	4	96	168	6
STR	24	0	3
SV_	24	0	3	96	168	1
TAP	25	0	4
TAP	25	0	5
TAP	25	192	2
TAP	25	192	3
TAP	26	0	5
TAP	26	0	6
TAP	26	192	1
TAP	26	192	2
TAP	27	0	6
TAP	27	0	7
TAP	27	192	0
TAP	27	192	1
TAP	28	0	2
TAP	28	0	5
TAP	28	96	2
TAP	28	96	5
TAP	28	192	1
TAP	28	192	6
TAP	28	288	1
TAP	28	288	6
BRK	29	0	0
BRK	29	0	7
HLD	29	192	0	192
HLD	30	0	1	192
HLD	30	192	2	192
HLD	31	0	3	192
HLD	31	192	4	192
HLD	32	0	5	192
TAP	32	192	6
TAP	33	0	0
TAP	33	0	7
HLD	33	192	0	192
HLD	34	0	1	192
HLD	34	192	2	192
STR	35	0	3
SI_	35	0	3	96	144	0
STR	36	0	7
SI_	36	0	7	96	144	4
HLD	37	192	7	192
HLD	38	0	6	192
HLD	38	192	5	192
HLD	39	0	4	192
HLD	39	192	3	192
HLD	40	0	2	192
TAP	40	192	1
TAP	41	0	0
TAP	41	0	7
TAP	42	0	0
TAP	42	96	1
TAP	42	192	2
TAP	42	288	3
STR	43	0	4
SI_	43	0	4	96	144	7
STR	44	0	0
SI_	44	0	0	96	144	3
HLD	45	0	1	288
HLD	45	0	6	288
TAP	46	192	0
STR	46	240	0
SCR	46	240	0	96	120	3
TAP	48	0	6
TAP	48	96	6
TAP	48	192	1
TAP	48	288	1
TAP	49	0	6
TAP	49	96	0
TAP	49	96	7
TAP	49	192	1
TAP	49	288	0
TAP	49	288	7
TAP	50	192	7
STR	50	240	7
SCL	50	240	7	96	120	4
TAP	52	0	1
TAP	52	96	1
TAP	52	192	6
TAP	52	288	6
TAP	53	0	1
TAP	53	96	0
TAP	53	96	7
TAP	53	192	6
TAP	53	288	0
TAP	53	288	7
TAP	54	192	0
STR	54	240	0
SCR	54	240	0	96	144	4
TAP	56	0	5
TAP	56	48	5
TAP	56	96	5
TAP	56	192	2
TAP	56	240	2
TAP	56	288	2
TAP	57	0	5
TAP	57	96	3
TAP	57	96	4
TAP	57	192	2
TAP	57	288	3
TAP	57	288	4
TAP	58	192	7
STR	58	240	7
SCL	58	240	7	96	144	3
TAP	60	0	2
TAP	60	48	2
TAP	60	96	2
TAP	60	192	5
TAP	60	240	5
TAP	60	288	5
TAP	61	0	2
TAP	61	96	3
TAP	61	96	4
TAP	61	192	5
TAP	61	288	3
TAP	61	288	4
STR	62	0	4
SI_	62	0	4	96	672	0
HLD	65	0	0	288
HLD	65	0	7	288
TAP	66	0	1
TAP	66	48	0
TAP	66	96	1
TAP	66	192	0
TAP	66	192	1
TAP	67	0	6
TAP	67	48	7
TAP	67	96	6
TAP	67	192	6
TAP	67	192	7
TAP	68	0	0
TAP	68	48	7
TAP	68	96	0
TAP	68	192	0
TAP	68	192	7
TAP	69	0	0
TAP	69	0	7
TAP	69	96	0
TAP	69	96	7
TAP	69	192	1
TAP	69	192	6
TAP	69	288	1
TAP	69	288	6
TAP	70	0	2
TAP	70	48	3
TAP	70	96	2
TAP	70	192	2
TAP	70	192	3
TAP	71	0	5
TAP	71	48	4
TAP	71	96	5
TAP	71	192	4
TAP	71	192	5
TAP	72	0	3
TAP	72	48	4
TAP	72	96	3
TAP	72	192	3
TAP	72	192	4
TAP	73	0	3
TAP	73	0	4
TAP	73	96	3
TAP	73	96	4
TAP	73	192	2
TAP	73	192	5
TAP	73	288	2
TAP	73	288	5
STR	74	0	3
SCR	74	0	3	96	576	2
TAP	76	0	0
TAP	76	0	7
TAP	76	96	0
TAP	76	96	7
TAP	76	192	1
TAP	76	192	6
TAP	76	240	1
TAP	76	240	6
TAP	76	288	1
TAP	76	288	6
BRK	76	336	1
BRK	76	336	6

T_REC_TAP	194
T_REC_BRK	6
T_REC_XTP	0
T_REC_HLD	19
T_REC_XHO	0
T_REC_STR	18
T_REC_BST	0
T_REC_XST	0
T_REC_TTP	0
T_REC_THO	0
T_REC_SLD	18
T_REC_ALL	255
T_NUM_TAP	212
T_NUM_BRK	6
T_NUM_HLD	19
T_NUM_SLD	18
T_NUM_ALL	255
T_JUDGE_TAP	218
T_JUDGE_HLD	84
T_JUDGE_SLD	18
T_JUDGE_ALL	320
TTM_EACHPAIRS	68
TTM_SCR_TAP	106000
TTM_SCR_BRK	15600
TTM_SCR_HLD	19000
TTM_SCR_SLD	27000
TTM_SCR_ALL	167600
TTM_SCR_S	162000
TTM_SCR_SS	167000
TTM_RAT_ACV	10035

