VERSION	0.00.00	1.03.00
FES_MODE	0
BPM_DEF	172.000	172.000	172.000	172.000
MET_DEF	4	4
RESOLUTION	384
CLK_DEF	384
COMPATIBLE_CODE	MA2

BPM	0	0	172.000
MET	0	0	4	4

TAP	3	0	0
TAP	3	192	0
TAP	4	0	1
TAP	5	0	2
TAP	5	192	2
TAP	6	0	3
TAP	6	192	3
TAP	7	0	4
TAP	7	192	4
TAP	8	0	5
TAP	9	0	6
TAP	9	192	6
TAP	10	0	7
TAP	10	192	7
BRK	11	0	0
BRK	11	0	7
HLD	13	0	1	192
TAP	14	0	1
HLD	15	0	2	192
TAP	16	0	2
STR	17	0	3
SI_	17	0	3	96	288	7
HLD	19	0	0	192
TAP	20	0	7
TAP	20	96	7
TAP	20	192	7
HLD	21	0	6	192
TAP	22	0	6
HLD	23	0	5	192
TAP	24	0	5
STR	25	0	4
SI_	25	0	4	96	288	0
HLD	27	0	7	192
TAP	28	0	0
TAP	28	96	0
TAP	28	192	0
STR	29	0	1
SI_	29	0	1	96	288	4
STR	31	0	6
SI_	31	0	6	96	288	3
TAP	33	0	2
TAP	33	192	3
TAP	34	0	4
TAP	34	192	5
HLD	35	0	6	384
STR	37	0	6
SI_	37	0	6	96	288	3
STR	39	0	1
SI_	39	0	1	96	288	4
TAP	41	0	5
TAP	41	192	4
TAP	42	0	3
TAP	42	192	2
HLD	43	0	1	384
BRK	45	0	0
BRK	45	0	7
TAP	46	0	1
TAP	46	192	0
HLD	47	0	1	192
TAP	48	0	7
TAP	48	96	7
TAP	48	192	7
TAP	49	0	0
TAP	49	96	0
TAP	49	192	0
TAP	50	0	6
TAP	50	192	7
HLD	51	0	6	192
TAP	52	0	7
TAP	52	96	7
TAP	52	192	7
TAP	53	0	0
TAP	53	96	0
TAP	53	192	0
TAP	54	0	1
TAP	54	192	0
HLD	55	0	1	192
HLD	55	0	7	192
TAP	56	0	2
TAP	56	96	2
TAP	56	192	2
TAP	57	0	4
TAP	57	96	4
TAP	57	192	4
TAP	58	0	6
TAP	58	192	7
HLD	59	0	0	192
HLD	59	0	6	192
TAP	60	0	5
TAP	60	96	5
TAP	60	192	5
TAP	61	0	3
TAP	61	96	3
TAP	61	192	3
HLD	62	0	2	576
HLD	62	0	5	576
BRK	64	0	2
BRK	64	0	5
TAP	65	0	1
TAP	65	192	1
TAP	66	0	0
TAP	66	96	0
TAP	66	192	0
TAP	67	0	7
TAP	67	96	7
TAP	67	192	7
TAP	68	0	1
TAP	68	0	7
TAP	68	192	1
TAP	69	0	0
TAP	69	0	6
TAP	69	192	6
TAP	70	0	5
TAP	70	96	5
TAP	70	192	5
TAP	71	0	4
TAP	71	96	4
TAP	71	192	4
TAP	72	0	2
TAP	72	0	3
TAP	72	192	2
TAP	73	0	4
TAP	73	0	5
TAP	73	192	5
TAP	74	0	1
TAP	74	0	6
HLD	76	0	0	336
HLD	76	192	7	144

T_REC_TAP	92
T_REC_BRK	6
T_REC_XTP	0
T_REC_HLD	18
T_REC_XHO	0
T_REC_STR	6
T_REC_BST	0
T_REC_XST	0
T_REC_TTP	0
T_REC_THO	0
T_REC_SLD	6
T_REC_ALL	128
T_NUM_TAP	98
T_NUM_BRK	6
T_NUM_HLD	18
T_NUM_SLD	6
T_NUM_ALL	128
T_JUDGE_TAP	104
T_JUDGE_HLD	98
T_JUDGE_SLD	6
T_JUDGE_ALL	208
TTM_EACHPAIRS	11
TTM_SCR_TAP	49000
TTM_SCR_BRK	15600
TTM_SCR_HLD	18000
TTM_SCR_SLD	9000
TTM_SCR_ALL	91600
TTM_SCR_S	88300
TTM_SCR_SS	91000
TTM_RAT_ACV	10065

