VERSION	0.00.00	1.03.00
FES_MODE	0
BPM_DEF	128.000	128.000	128.000	128.000
MET_DEF	4	4
RESOLUTION	384
CLK_DEF	384
COMPATIBLE_CODE	MA2

BPM	0	0	128.000
MET	0	0	4	4

TAP	1	198	4
TAP	1	264	3
TAP	1	318	4
TAP	2	0	3
TAP	2	66	4
TAP	2	126	3
TAP	2	186	4
TAP	2	246	3
TAP	2	312	4
TAP	2	372	3
TAP	3	48	4
TAP	3	114	3
TAP	3	180	4
TAP	3	240	3
TAP	3	300	4
TAP	3	360	3
TAP	4	42	4
TAP	4	102	3
TAP	4	156	2
TAP	4	156	5
BRK	4	246	1
BRK	4	246	6
HLD	6	0	0	64
HLD	6	64	4	64
HLD	6	128	5	64
HLD	6	192	7	64
HLD	6	256	2	64
STR	6	320	0
SCL	6	320	0	96	352	5
HLD	7	0	0	384
HLD	8	192	0	64
HLD	8	256	2	64
STR	8	320	4
SCL	8	320	4	96	352	1
HLD	9	0	4	384
HLD	10	192	7	64
HLD	10	256	6	64
HLD	10	320	5	64
STR	11	0	4
SI_	11	0	4	96	96	1
STR	11	192	3
SI_	11	192	3	96	96	6
STR	12	0	5
SI_	12	0	5	96	96	0
STR	12	192	2
SI_	12	192	2	96	96	7
BRK	13	0	0
HLD	13	96	7	192
HLD	13	288	6	96
HLD	14	0	5	64
HLD	14	64	4	64
HLD	14	128	3	64
HLD	14	192	2	320
TAP	15	0	6
TAP	15	64	6
HLD	15	128	6	160
TAP	15	192	3
TAP	15	224	3
TAP	15	256	2
HLD	15	288	1	96
HLD	16	0	0	128
TAP	16	64	1
HLD	16	128	1	160
TAP	16	192	4
TAP	16	224	4
TAP	16	256	5
HLD	16	288	6	384
STR	17	0	4
SCL	17	0	4	96	192	1
TAP	18	0	7
TAP	18	64	7
TAP	18	96	6
TAP	18	160	6
TAP	18	192	5
TAP	18	256	5
TAP	18	288	4
TAP	18	352	4
TAP	19	0	3
TAP	19	64	3
TAP	19	96	2
TAP	19	160	2
TAP	19	192	1
TAP	19	256	1
TAP	19	288	0
TAP	19	352	0
TAP	20	0	7
TAP	20	64	7
TAP	20	96	5
TAP	20	160	5
TAP	20	192	3
TAP	20	256	3
TAP	20	288	1
TAP	20	352	1
HLD	21	0	7	288
HLD	21	96	0	192
TAP	22	0	7
TAP	22	64	7
TAP	22	96	6
TAP	22	160	6
TAP	22	192	5
TAP	22	256	5
TAP	22	288	3
TAP	22	288	4
TAP	23	0	0
TAP	23	64	0
TAP	23	96	1
TAP	23	160	1
TAP	23	192	2
TAP	23	256	2
TAP	23	288	3
TAP	23	288	4
STR	24	0	4
SI_	24	0	4	96	48	0
TAP	24	0	6
STR	24	96	2
SI_	24	96	2	96	48	7
STR	24	192	5
SI_	24	192	5	96	48	0
TAP	25	0	0
HLD	25	64	0	96
TAP	25	96	1
HLD	25	160	1	96
TAP	25	192	2
HLD	25	256	2	96
TAP	25	288	3
HLD	25	352	3	96
TAP	26	0	4
HLD	26	64	4	96
TAP	26	96	5
HLD	26	160	5	96
TAP	26	192	6
HLD	26	256	6	96
TAP	26	288	7
HLD	26	352	7	96
TAP	27	0	0
HLD	27	64	0	96
TAP	27	96	2
HLD	27	160	2	96
TAP	27	192	4
HLD	27	256	4	96
TAP	27	288	6
TAP	27	352	6
HLD	28	0	0	288
HLD	28	96	7	192
TAP	29	0	1
TAP	29	64	1
TAP	29	96	2
TAP	29	160	2
TAP	29	192	3
TAP	29	256	3
TAP	29	288	4
TAP	29	288	5
TAP	29	352	5
TAP	30	0	6
TAP	30	64	6
TAP	30	96	7
TAP	30	160	7
TAP	30	192	0
TAP	30	256	0
TAP	30	288	1
TAP	30	288	2
STR	30	352	3
SI_	30	352	3	96	64	0
TAP	31	0	3
STR	31	64	2
SI_	31	64	2	96	64	7
TAP	31	96	2
STR	31	160	5
SI_	31	160	5	96	64	0
TAP	31	192	5
STR	31	256	6
SI_	31	256	6	96	64	3
TAP	31	288	6
STR	31	352	0
SI_	31	352	0	96	64	4
TAP	32	0	0
STR	32	64	7
SI_	32	64	7	96	64	3
TAP	32	96	7
STR	32	160	1
SCL	32	160	1	96	64	6
TAP	32	192	1
HLD	33	0	6	160
TAP	33	160	7
TAP	33	192	4
TAP	33	192	5
TAP	33	288	0
TAP	33	288	2
HLD	34	0	1	160
TAP	34	160	0
TAP	34	192	3
TAP	34	192	4
TAP	34	288	5
TAP	34	288	7
HLD	35	0	6	160
TAP	35	160	7
TAP	35	192	4
TAP	35	192	5
TAP	35	288	0
TAP	35	288	2
HLD	36	0	1	160
TAP	36	160	0
TAP	36	192	3
TAP	36	192	4
TAP	36	288	5
TAP	36	288	7
TAP	37	0	0
STR	37	0	1
SCR	37	0	1	96	48	4
TAP	37	160	7
STR	37	192	6
SCL	37	192	6	96	48	3
TAP	37	192	7
TAP	37	288	0
TAP	38	0	0
STR	38	0	1
SCR	38	0	1	96	48	4
TAP	38	160	7
STR	38	192	6
SCL	38	192	6	96	48	3
TAP	38	192	7
TAP	38	288	0
STR	39	0	1
SCR	39	0	1	96	48	4
TAP	39	0	7
TAP	39	160	0
TAP	39	192	0
STR	39	192	6
SCL	39	192	6	96	48	3
TAP	39	288	7
STR	40	0	1
SCR	40	0	1	96	48	4
TAP	40	0	7
TAP	40	160	0
TAP	40	192	0
STR	40	192	6
SCL	40	192	6	96	48	3
TAP	40	288	7
STR	41	0	0
SI_	41	0	0	96	48	5
TAP	41	64	0
TAP	41	96	7
STR	41	192	7
SI_	41	192	7	96	48	2
TAP	41	256	7
TAP	41	288	1
STR	42	0	1
SI_	42	0	1	96	48	5
TAP	42	64	1
TAP	42	96	6
STR	42	192	6
SI_	42	192	6	96	48	3
TAP	42	256	6
BRK	42	288	4
TAP	43	0	6
TAP	43	0	7
TAP	43	64	0
TAP	43	64	4
TAP	43	128	2
TAP	43	128	3
TAP	43	192	0
TAP	43	192	1
TAP	43	256	3
TAP	43	256	7
TAP	43	320	4
TAP	43	320	5
STR	44	0	0
SI_	44	0	0	96	32	5
STR	44	96	6
SI_	44	96	6	96	32	3
STR	44	192	4
SI_	44	192	4	96	32	1
STR	44	288	3
SI_	44	288	3	96	288	7
STR	46	0	4
SI_	46	0	4	96	48	0
HLD	46	0	6	96
HLD	46	192	1	96
STR	46	192	7
SI_	46	192	7	96	48	3
TAP	47	0	1
TAP	47	0	4
TAP	47	32	2
STR	47	32	3
SI_	47	32	3	96	96	0
TAP	47	64	1
STR	47	64	4
SI_	47	64	4	96	96	7
TAP	48	0	0
TAP	48	0	5
TAP	48	32	6
STR	48	32	7
SCR	48	32	7	96	96	2
STR	48	64	0
SCL	48	64	0	96	96	5
TAP	48	64	5
TAP	48	288	3
TAP	48	288	5
TAP	48	320	4
TAP	48	352	5
TAP	49	0	6
TAP	49	96	2
TAP	49	96	4
TAP	49	128	3
TAP	49	160	2
TAP	49	192	1
TAP	49	192	3
TAP	49	224	2
TAP	49	256	1
TAP	49	288	4
TAP	49	288	6
TAP	49	320	5
TAP	49	352	6
TAP	50	0	5
TAP	50	0	7
TAP	50	96	5
TAP	50	96	7
TAP	50	128	6
TAP	50	160	5
TAP	50	192	4
TAP	50	192	6
TAP	50	224	5
TAP	50	256	4
TAP	50	288	1
TAP	50	288	3
TAP	50	320	2
TAP	50	352	3
STR	51	0	5
SI_	51	0	5	96	48	0
STR	51	192	4
SI_	51	192	4	96	48	7
STR	52	0	5
SCR	52	0	5	96	48	0
HLD	52	64	5	192
STR	52	192	2
SCL	52	192	2	96	48	7
HLD	52	256	2	128
STR	53	0	4
SI_	53	0	4	96	576	0
HLD	53	96	4	576
TAP	55	0	1
TAP	55	0	3
TAP	55	32	2
TAP	55	64	1
TAP	55	96	4
TAP	55	96	6
TAP	55	128	5
TAP	55	160	6
TAP	55	192	0
TAP	55	192	2
TAP	55	224	1
TAP	55	256	0
TAP	55	288	5
TAP	55	288	7
TAP	55	320	6
TAP	55	352	7
TAP	56	0	0
TAP	56	0	2
TAP	56	32	1
TAP	56	64	2
TAP	56	96	5
TAP	56	96	7
TAP	56	128	6
TAP	56	160	5
TAP	56	192	1
TAP	56	192	3
TAP	56	224	2
TAP	56	256	3
TAP	56	288	4
TAP	56	288	6
TAP	56	320	5
TAP	56	352	4
TAP	57	0	1
TAP	57	0	6
TAP	57	32	0
TAP	57	32	5
TAP	57	64	4
TAP	57	64	7
STR	57	96	3
SCR	57	96	3	96	32	6
STR	57	96	6
SCR	57	96	6	96	32	1
TAP	57	288	1
TAP	57	288	6
TAP	57	320	2
TAP	57	320	7
TAP	57	352	0
TAP	57	352	3
STR	58	0	1
SCL	58	0	1	96	32	6
STR	58	0	4
SCL	58	0	4	96	32	1
BRK	58	192	1
BRK	58	192	6

T_REC_TAP	245
T_REC_BRK	6
T_REC_XTP	0
T_REC_HLD	47
T_REC_XHO	0
T_REC_STR	48
T_REC_BST	0
T_REC_XST	0
T_REC_TTP	0
T_REC_THO	0
T_REC_SLD	48
T_REC_ALL	394
T_NUM_TAP	293
T_NUM_BRK	6
T_NUM_HLD	47
T_NUM_SLD	48
T_NUM_ALL	394
T_JUDGE_TAP	299
T_JUDGE_HLD	157
T_JUDGE_SLD	48
T_JUDGE_ALL	504
TTM_EACHPAIRS	62
TTM_SCR_TAP	146500
TTM_SCR_BRK	15600
TTM_SCR_HLD	47000
TTM_SCR_SLD	72000
TTM_SCR_ALL	281100
TTM_SCR_S	272100
TTM_SCR_SS	280500
TTM_RAT_ACV	10021

