VERSION	0.00.00	1.03.00
FES_MODE	0
BPM_DEF	128.000	128.000	128.000	128.000
MET_DEF	4	4
RESOLUTION	384
CLK_DEF	384
COMPATIBLE_CODE	MA2

BPM	0	0	128.000
MET	0	0	4	4

HLD	6	0	0	64
HLD	6	64	4	64
HLD	6	128	2	64
HLD	6	192	7	64
HLD	6	256	4	64
HLD	6	320	6	64
BRK	7	0	0
HLD	7	160	1	352
TAP	8	192	2
TAP	8	192	3
TAP	8	256	0
TAP	8	256	1
STR	8	320	6
SI_	8	320	6	96	64	2
STR	8	320	7
SI_	8	320	7	96	64	3
HLD	11	0	4	160
HLD	11	0	5	160
HLD	11	192	5	160
HLD	11	192	6	160
HLD	12	0	6	160
HLD	12	0	7	160
HLD	12	192	0	160
HLD	12	192	7	160
BRK	13	0	0
BRK	13	0	7
TAP	15	0	0
TAP	15	0	4
TAP	15	64	2
TAP	15	64	7
TAP	15	128	3
TAP	15	128	6
TAP	16	0	3
TAP	16	0	7
TAP	16	64	2
TAP	16	64	5
TAP	16	128	0
TAP	16	128	4
STR	16	288	2
SI_	16	288	2	96	192	7
TAP	18	0	1
TAP	18	64	2
TAP	18	96	2
TAP	18	160	4
HLD	18	192	4	96
TAP	18	288	3
TAP	18	352	1
TAP	19	0	1
TAP	19	64	0
TAP	19	96	0
TAP	19	160	6
HLD	19	192	6	96
TAP	19	288	7
TAP	19	352	1
TAP	20	0	1
TAP	20	64	3
TAP	20	96	3
TAP	20	160	5
HLD	20	192	5	96
TAP	20	288	7
TAP	20	352	6
TAP	21	0	3
TAP	21	0	5
HLD	21	96	0	192
HLD	21	96	2	192
TAP	22	0	3
TAP	22	32	3
TAP	22	64	4
TAP	22	96	4
TAP	22	128	5
TAP	22	160	5
HLD	22	192	6	96
TAP	22	288	5
TAP	22	320	4
TAP	22	352	3
HLD	23	0	2	64
TAP	23	64	4
HLD	23	96	5	64
TAP	23	160	3
HLD	23	192	2	128
TAP	23	320	0
TAP	23	352	0
STR	24	0	7
SI_	24	0	7	96	96	3
TAP	24	64	6
STR	24	96	6
SI_	24	96	6	96	96	2
TAP	25	0	1
TAP	25	64	3
TAP	25	96	3
TAP	25	160	1
TAP	25	192	1
TAP	25	256	0
TAP	25	288	0
TAP	25	352	7
TAP	26	0	7
TAP	26	64	5
TAP	26	96	5
TAP	26	160	3
TAP	26	192	3
TAP	26	256	4
TAP	26	288	4
TAP	26	352	6
TAP	27	0	6
TAP	27	64	0
TAP	27	96	0
TAP	27	160	1
TAP	27	192	1
TAP	27	256	0
TAP	27	288	0
TAP	27	352	7
TAP	28	0	6
TAP	28	0	7
HLD	28	96	5	192
HLD	28	96	6	192
TAP	29	0	7
TAP	29	32	7
TAP	29	64	0
TAP	29	96	0
TAP	29	128	1
TAP	29	160	1
STR	29	192	2
SI_	29	192	2	96	48	7
HLD	30	0	6	64
TAP	30	64	5
HLD	30	96	4	64
TAP	30	160	2
STR	30	192	0
SI_	30	192	0	96	48	3
STR	30	288	7
SI_	30	288	7	96	288	4
BRK	32	0	0
HLD	33	0	7	160
TAP	33	192	7
HLD	34	0	6	160
TAP	34	192	6
HLD	35	0	0	160
HLD	35	192	1	160
HLD	36	0	2	288
HLD	37	0	1	160
HLD	37	192	7	160
HLD	38	0	5	160
HLD	38	192	3	160
STR	39	0	1
SI_	39	0	1	96	192	5
STR	39	192	0
SI_	39	192	0	96	192	4
STR	40	0	7
SI_	40	0	7	96	192	3
TAP	40	288	4
TAP	40	320	5
TAP	40	352	6
HLD	41	0	7	64
TAP	41	64	0
TAP	41	96	0
HLD	41	192	1	64
TAP	41	256	0
TAP	41	288	0
HLD	42	0	7	64
TAP	42	64	6
TAP	42	96	6
HLD	42	192	5	64
TAP	42	256	4
TAP	42	288	3
TAP	42	320	3
TAP	42	352	2
TAP	43	0	0
TAP	43	0	1
TAP	43	64	2
TAP	43	64	3
TAP	43	128	4
TAP	43	128	5
HLD	43	192	6	64
HLD	43	256	4	64
TAP	43	320	2
BRK	44	0	3
BRK	44	0	4
STR	44	96	3
SI_	44	96	3	96	48	0
STR	44	96	4
SI_	44	96	4	96	48	7
BRK	44	288	0
BRK	44	288	7
STR	45	0	0
SCR	45	0	0	96	192	3
STR	45	0	7
SCL	45	0	7	96	192	4
HLD	46	0	1	192
HLD	46	192	0	192
TAP	47	0	1
TAP	47	32	2
TAP	47	64	3
HLD	47	96	4	64
TAP	47	160	5
TAP	47	192	4
TAP	47	256	2
TAP	47	288	1
TAP	47	352	0
TAP	48	0	1
TAP	48	32	2
TAP	48	64	3
HLD	48	96	4	64
TAP	48	160	6
TAP	48	192	6
TAP	48	288	4
TAP	48	320	3
TAP	48	352	2
HLD	49	0	1	96
TAP	49	96	7
TAP	49	128	0
TAP	49	160	1
HLD	49	192	7	96
TAP	49	288	2
TAP	49	320	1
TAP	49	352	0
HLD	50	0	3	96
HLD	50	96	6	64
TAP	50	160	5
TAP	50	192	3
TAP	50	224	1
TAP	50	256	7
STR	50	288	6
SI_	50	288	6	96	192	2
STR	51	96	0
SI_	51	96	0	96	192	4
TAP	52	0	0
TAP	52	64	6
TAP	52	128	4
BRK	52	192	2
BRK	52	192	3
BRK	52	256	4
BRK	52	256	5
BRK	52	320	6
BRK	52	320	7
STR	53	0	0
SI_	53	0	0	96	288	5
STR	53	0	1
SI_	53	0	1	96	288	4
HLD	55	0	6	64
TAP	55	64	5
HLD	55	96	4	96
HLD	55	192	5	64
TAP	55	256	6
HLD	55	288	7	96
HLD	56	0	6	64
TAP	56	64	5
HLD	56	96	4	96
HLD	56	192	2	64
TAP	56	256	4
TAP	56	288	6
TAP	57	0	3
TAP	57	0	4
TAP	57	32	3
TAP	57	32	4
TAP	57	64	3
TAP	57	64	4
TAP	57	96	3
TAP	57	96	4
TAP	57	192	2
TAP	57	192	3
TAP	57	288	5
TAP	57	288	6
TAP	57	320	5
TAP	57	320	6
TAP	57	352	6
TAP	57	352	7
TAP	58	0	6
TAP	58	0	7
STR	58	96	0
SI_	58	96	0	96	768	3
STR	58	96	7
SI_	58	96	7	96	768	4

T_REC_TAP	158
T_REC_BRK	14
T_REC_XTP	0
T_REC_HLD	58
T_REC_XHO	0
T_REC_STR	21
T_REC_BST	0
T_REC_XST	0
T_REC_TTP	0
T_REC_THO	0
T_REC_SLD	21
T_REC_ALL	272
T_NUM_TAP	179
T_NUM_BRK	14
T_NUM_HLD	58
T_NUM_SLD	21
T_NUM_ALL	272
T_JUDGE_TAP	193
T_JUDGE_HLD	171
T_JUDGE_SLD	21
T_JUDGE_ALL	385
TTM_EACHPAIRS	39
TTM_SCR_TAP	89500
TTM_SCR_BRK	36400
TTM_SCR_HLD	58000
TTM_SCR_SLD	31500
TTM_SCR_ALL	215400
TTM_SCR_S	207600
TTM_SCR_SS	214000
TTM_RAT_ACV	10065

