VERSION	0.00.00	1.03.00
FES_MODE	0
BPM_DEF	128.000	128.000	128.000	128.000
MET_DEF	4	4
RESOLUTION	384
CLK_DEF	384
COMPATIBLE_CODE	MA2

BPM	0	0	128.000
MET	0	0	4	4

HLD	6	0	5	192
HLD	6	192	1	192
BRK	7	0	7
HLD	8	192	6	192
HLD	11	0	0	192
HLD	11	192	2	192
HLD	12	0	4	192
HLD	12	192	6	192
TAP	13	0	7
HLD	15	0	5	144
HLD	16	0	3	144
HLD	17	0	0	288
HLD	17	0	1	288
TAP	18	0	2
TAP	18	96	2
TAP	18	192	3
TAP	18	288	3
TAP	19	0	4
TAP	19	96	4
TAP	19	192	5
TAP	19	288	5
TAP	20	0	6
TAP	20	96	6
TAP	20	192	7
TAP	20	288	7
TAP	21	0	0
TAP	21	96	7
TAP	21	192	6
TAP	21	288	5
TAP	22	0	3
TAP	22	96	3
HLD	22	192	1	96
TAP	23	0	3
TAP	23	96	5
HLD	23	192	7	96
STR	24	0	0
SI_	24	0	0	96	192	3
STR	24	0	7
SI_	24	0	7	96	192	4
TAP	25	0	2
TAP	25	96	3
TAP	25	192	4
TAP	25	288	5
TAP	26	0	5
TAP	26	96	4
TAP	26	192	3
TAP	26	288	2
TAP	27	0	2
TAP	27	96	3
TAP	27	192	4
TAP	27	288	5
TAP	28	0	7
HLD	28	96	0	192
HLD	28	96	1	192
STR	29	0	2
SI_	29	0	2	96	96	7
STR	30	0	6
SI_	30	0	6	96	96	3
HLD	31	0	4	384
HLD	33	0	1	192
HLD	34	0	0	192
HLD	35	0	6	192
HLD	36	0	5	192
STR	37	0	4
SCR	37	0	4	96	192	7
STR	38	0	2
SCL	38	0	2	96	192	7
HLD	39	0	5	192
HLD	40	0	3	192
TAP	41	0	2
TAP	41	96	2
TAP	41	192	4
TAP	41	288	4
TAP	42	0	6
TAP	42	96	6
TAP	42	192	0
TAP	42	288	0
TAP	43	0	0
TAP	43	0	7
TAP	43	96	0
TAP	43	96	7
TAP	43	192	6
TAP	43	192	7
TAP	43	288	6
TAP	43	288	7
BRK	44	0	0
BRK	44	0	7
TAP	44	96	0
TAP	44	96	7
BRK	44	192	0
BRK	44	192	1
TAP	44	288	0
TAP	44	288	1
HLD	45	0	2	288
HLD	45	0	3	288
HLD	46	0	4	192
HLD	46	192	6	96
TAP	47	0	4
TAP	47	96	2
TAP	47	160	1
HLD	47	192	1	96
TAP	48	0	2
TAP	48	96	4
TAP	48	160	5
HLD	48	192	5	96
HLD	49	0	3	192
HLD	49	192	2	192
HLD	50	0	1	192
TAP	50	192	0
TAP	50	288	0
TAP	51	0	1
TAP	51	96	2
TAP	51	192	3
TAP	51	288	4
HLD	52	0	5	128
HLD	52	192	6	128
STR	53	0	7
SI_	53	0	7	96	192	3
TAP	55	0	2
TAP	55	96	3
TAP	55	192	4
TAP	55	288	5
TAP	56	0	6
TAP	56	96	7
TAP	56	192	0
TAP	56	288	1
HLD	57	0	2	184
TAP	57	184	0
HLD	57	280	7	96
TAP	58	88	7
BRK	58	184	0
BRK	58	184	7

T_REC_TAP	76
T_REC_BRK	7
T_REC_XTP	0
T_REC_HLD	35
T_REC_XHO	0
T_REC_STR	7
T_REC_BST	0
T_REC_XST	0
T_REC_TTP	0
T_REC_THO	0
T_REC_SLD	7
T_REC_ALL	132
T_NUM_TAP	83
T_NUM_BRK	7
T_NUM_HLD	35
T_NUM_SLD	7
T_NUM_ALL	132
T_JUDGE_TAP	90
T_JUDGE_HLD	136
T_JUDGE_SLD	7
T_JUDGE_ALL	233
TTM_EACHPAIRS	13
TTM_SCR_TAP	41500
TTM_SCR_BRK	18200
TTM_SCR_HLD	35000
TTM_SCR_SLD	10500
TTM_SCR_ALL	105200
TTM_SCR_S	101400
TTM_SCR_SS	104500
TTM_RAT_ACV	10066

