VERSION	0.00.00	1.03.00
FES_MODE	0
BPM_DEF	128.000	128.000	128.000	128.000
MET_DEF	4	4
RESOLUTION	384
CLK_DEF	384
COMPATIBLE_CODE	MA2

BPM	0	0	128.000
MET	0	0	4	4

TAP	6	0	3
TAP	6	192	2
TAP	7	0	1
TAP	8	192	0
STR	9	0	0
SI_	9	0	0	96	288	3
TAP	11	0	4
TAP	11	192	5
TAP	12	0	6
TAP	12	192	7
TAP	13	0	0
TAP	13	0	7
HLD	15	0	1	192
HLD	16	0	2	192
TAP	17	0	3
TAP	17	0	4
TAP	18	0	3
TAP	18	192	3
TAP	19	0	2
TAP	19	192	2
TAP	20	0	1
TAP	20	192	1
TAP	21	0	0
HLD	21	96	0	192
TAP	22	0	7
TAP	22	192	6
TAP	23	0	5
TAP	23	192	4
TAP	24	0	3
HLD	24	96	3	192
TAP	25	0	4
TAP	25	192	4
TAP	26	0	5
TAP	26	192	5
TAP	27	0	6
TAP	27	192	6
TAP	28	0	7
HLD	28	96	7	192
TAP	29	0	0
TAP	29	192	0
TAP	30	0	1
TAP	30	192	1
STR	31	0	2
SI_	31	0	2	96	288	5
HLD	33	0	3	192
HLD	34	0	4	192
TAP	35	0	3
TAP	35	192	2
TAP	36	0	1
TAP	36	192	0
HLD	37	0	7	192
HLD	38	0	0	192
TAP	39	0	7
TAP	39	192	6
TAP	40	0	5
TAP	40	192	4
TAP	41	0	3
TAP	41	96	3
TAP	41	192	2
TAP	42	0	2
TAP	42	96	2
TAP	42	192	1
TAP	43	0	0
TAP	43	96	0
TAP	43	192	7
TAP	43	288	7
HLD	44	0	0	96
HLD	44	192	7	96
HLD	45	0	0	192
HLD	45	0	7	192
BRK	46	0	0
BRK	46	192	7
TAP	47	0	0
TAP	47	96	0
HLD	47	192	0	96
TAP	48	0	1
TAP	48	96	1
HLD	48	192	1	96
TAP	49	0	2
TAP	49	96	2
HLD	49	192	2	96
TAP	50	0	3
TAP	50	96	3
HLD	50	192	3	96
BRK	51	0	4
BRK	51	192	5
TAP	52	0	6
TAP	52	192	7
TAP	53	0	0
TAP	53	0	7
HLD	53	96	0	576
HLD	53	96	7	576
TAP	55	0	7
TAP	55	192	6
TAP	56	0	5
TAP	56	192	4
TAP	57	0	3
TAP	57	96	3
TAP	57	192	3
TAP	57	288	4
TAP	58	0	4
TAP	58	96	4
HLD	58	192	3	768
HLD	58	192	4	768

T_REC_TAP	75
T_REC_BRK	4
T_REC_XTP	0
T_REC_HLD	21
T_REC_XHO	0
T_REC_STR	2
T_REC_BST	0
T_REC_XST	0
T_REC_TTP	0
T_REC_THO	0
T_REC_SLD	2
T_REC_ALL	104
T_NUM_TAP	77
T_NUM_BRK	4
T_NUM_HLD	21
T_NUM_SLD	2
T_NUM_ALL	104
T_JUDGE_TAP	81
T_JUDGE_HLD	112
T_JUDGE_SLD	2
T_JUDGE_ALL	195
TTM_EACHPAIRS	6
TTM_SCR_TAP	38500
TTM_SCR_BRK	10400
TTM_SCR_HLD	21000
TTM_SCR_SLD	3000
TTM_SCR_ALL	72900
TTM_SCR_S	70350
TTM_SCR_SS	72500
TTM_RAT_ACV	10055

