VERSION	0.00.00	1.03.00
FES_MODE	0
BPM_DEF	175.000	175.000	175.000	175.000
MET_DEF	4	4
RESOLUTION	384
CLK_DEF	384
COMPATIBLE_CODE	MA2

BPM	0	0	175.000
MET	0	0	4	4

TAP	1	0	2
TAP	1	24	3
TAP	1	48	1
TAP	1	96	5
TAP	1	120	4
TAP	1	144	6
TAP	1	192	2
TAP	1	216	3
TAP	1	240	1
TAP	1	288	2
TAP	1	288	7
TAP	1	336	2
HLD	1	336	7	96
TAP	2	48	1
STR	2	96	1
SCR	2	96	1	96	48	3
STR	2	192	1
SCL	2	192	1	96	48	7
TAP	2	288	5
HLD	2	336	5	96
TAP	3	48	2
STR	3	96	2
SXR	3	96	2	96	96	4
TAP	3	192	4
TAP	3	288	6
TAP	3	336	6
TAP	4	48	3
TAP	4	48	7
STR	4	96	3
SCL	4	96	3	96	48	0
STR	4	96	7
SCL	4	96	7	96	48	4
TAP	4	192	3
TAP	4	192	7
TAP	4	288	3
STR	4	336	3
SI_	4	336	3	96	48	5
TAP	5	48	2
STR	5	96	2
SI_	5	96	2	96	48	6
TAP	5	288	0
TAP	5	288	4
TAP	5	336	0
TAP	5	336	4
TAP	6	48	2
TAP	6	48	6
STR	6	96	2
SV_	6	96	2	96	48	0
STR	6	96	6
SV_	6	96	6	96	48	4
TAP	6	288	6
TAP	6	288	7
TAP	6	336	6
TAP	6	336	7
TAP	7	48	0
TAP	7	48	1
TAP	7	96	0
TAP	7	96	1
TAP	7	192	6
TAP	7	192	7
STR	7	288	5
SI_	7	288	5	96	96	7
STR	8	0	7
SV_	8	0	7	96	96	0
STR	8	96	0
SI_	8	96	0	96	96	2
TAP	8	192	2
TAP	8	288	3
TAP	9	0	4
TAP	9	0	6
TAP	9	72	3
TAP	9	72	5
TAP	9	144	2
TAP	9	144	4
BRK	9	192	0
BRK	9	192	1
STR	9	288	7
SCL	9	288	7	96	96	4
STR	10	0	4
SCL	10	0	4	96	96	1
STR	10	96	1
SCL	10	96	1	96	96	6
STR	10	192	6
SCL	10	192	6	96	96	3
STR	10	288	3
SCL	10	288	3	96	96	0
STR	11	0	0
SCL	11	0	0	96	96	5
STR	11	96	5
SCL	11	96	5	96	96	2
TAP	11	192	2
TAP	11	288	0
TAP	12	0	0
TAP	12	0	7
TAP	12	48	6
TAP	12	72	4
TAP	12	120	1
TAP	12	144	3
TAP	12	192	2
TAP	12	192	4
TAP	12	240	2
TAP	12	240	4
TAP	12	288	3
STR	12	288	5
SI_	12	288	5	96	48	0
STR	13	0	4
SI_	13	0	4	96	48	1
BRK	13	0	5
BRK	13	96	4
STR	13	96	5
SI_	13	96	5	96	48	0
STR	13	192	4
SI_	13	192	4	96	48	1
BRK	13	192	5
BRK	13	288	4
TAP	13	288	5
STR	14	0	7
SCL	14	0	7	96	96	3
STR	14	96	3
SCL	14	96	3	96	96	7
STR	14	192	7
SCL	14	192	7	96	96	3
STR	14	288	3
SCL	14	288	3	96	96	7
TAP	15	0	7
TAP	15	96	3
TAP	15	144	3
STR	15	192	1
SCR	15	192	1	96	48	4
HLD	15	192	5	192
TAP	15	288	1
TAP	16	0	4
TAP	16	12	3
TAP	16	24	2
TAP	16	36	1
TAP	16	48	0
TAP	16	60	7
TAP	16	72	6
TAP	16	84	5
TAP	16	96	4
TAP	16	144	1
TAP	16	144	2
TAP	16	192	1
TAP	16	192	2
TAP	16	264	3
TAP	16	264	4
TAP	16	336	5
TAP	16	336	6
STR	17	0	0
SI_	17	0	0	96	48	2
STR	17	0	7
SI_	17	0	7	96	48	5
TAP	17	48	0
TAP	17	48	7
STR	17	96	0
SI_	17	96	0	96	48	4
STR	17	96	7
SI_	17	96	7	96	48	3
TAP	17	192	0
TAP	17	192	7
BRK	17	288	1
BRK	17	288	6
TAP	18	0	4
STR	18	0	5
SCR	18	0	5	96	48	7
TAP	18	96	4
TAP	18	96	5
STR	18	192	4
SCL	18	192	4	96	48	2
TAP	18	192	5
TAP	18	288	4
TAP	18	288	5
TAP	19	0	4
STR	19	0	5
SCR	19	0	5	96	48	7
TAP	19	96	4
TAP	19	96	5
TAP	19	192	3
TAP	19	240	3
TAP	19	288	2
TAP	19	288	4
TAP	20	0	2
TAP	20	0	4
TAP	20	96	3
TAP	20	96	5
TAP	20	192	2
TAP	20	192	4
TAP	20	288	0
STR	20	288	1
SCR	20	288	1	96	48	3
STR	21	0	0
SCL	21	0	0	96	48	6
STR	21	96	1
SCR	21	96	1	96	48	3
TAP	21	192	0
TAP	21	240	0
STR	21	288	2
SXL	21	288	2	96	192	7
TAP	21	336	2
TAP	22	0	4
TAP	22	96	6
TAP	22	192	6
TAP	22	288	0
STR	22	288	6
SXR	22	288	6	96	192	0
TAP	23	0	2
TAP	23	96	1
TAP	23	192	1
STR	23	288	1
SI_	23	288	1	96	48	4
BRK	24	0	1
BRK	24	0	5
TAP	24	48	5
TAP	24	96	4
TAP	24	96	5
BST	24	192	6
SSR	24	192	6	96	96	2
TAP	24	240	6
TAP	24	288	1
BRK	25	0	0
TAP	25	48	0
STR	25	96	0
SF_	25	96	0	96	48	4
BRK	25	192	0
TAP	26	0	3
TAP	26	0	4
STR	26	48	3
SCL	26	48	3	96	48	0
TAP	26	48	4
STR	26	144	3
SCR	26	144	3	96	48	6
STR	26	240	3
SCL	26	240	3	96	48	0
STR	26	336	3
SCR	26	336	3	96	48	6
TAP	27	48	3
TAP	27	144	3
TAP	27	192	3
TAP	27	288	2
TAP	27	288	4
BRK	28	0	0
BST	28	48	0
SSL	28	48	0	96	96	4
BRK	28	144	6
BRK	28	240	6
BRK	28	336	1
BRK	28	336	5
BRK	29	0	1
BRK	29	0	5
BST	29	96	3
SXL	29	96	3	96	96	3
SXR	29	96	3	96	96	3
BRK	29	192	3
HLD	30	0	3	48
HLD	30	48	4	48
HLD	30	96	5	48
HLD	30	144	6	48
HLD	30	192	7	48
HLD	30	240	0	48
HLD	30	288	1	48
HLD	30	336	2	48
HLD	31	0	3	48
HLD	31	48	4	48
HLD	31	96	5	48
HLD	31	144	6	48
HLD	31	192	7	48
TAP	31	240	0
TAP	31	288	0
TAP	31	336	0
TAP	32	0	0
TAP	32	0	7
TAP	32	48	0
TAP	32	48	6
TAP	32	96	5
TAP	32	96	7
TAP	32	144	0
TAP	32	144	7
TAP	32	192	1
TAP	32	192	2
STR	32	240	3
SXR	32	240	3	96	72	3
STR	32	240	4
SXL	32	240	4	96	72	4
TAP	32	288	4
TAP	32	288	5
TAP	32	336	3
TAP	32	336	4
STR	33	96	4
SSL	33	96	4	96	96	0
TAP	33	192	1
BRK	33	288	5
TAP	34	0	3
TAP	34	0	4
TAP	34	48	2
TAP	34	48	3
STR	34	96	1
SI_	34	96	1	96	48	6
STR	34	96	2
SI_	34	96	2	96	48	5
TAP	34	288	4
HLD	34	288	7	96
TAP	35	0	5
TAP	35	48	5
STR	35	96	5
SI_	35	96	5	96	48	1
STR	35	96	6
SI_	35	96	6	96	48	2
TAP	35	288	0
STR	35	288	3
SF_	35	288	3	96	48	7
STR	36	96	7
SF_	36	96	7	96	48	3
TAP	36	288	1
TAP	36	288	5
TAP	37	0	6
TAP	37	0	7
STR	37	96	0
SUR	37	96	0	96	96	7
STR	37	96	1
SCR	37	96	1	96	96	7
TAP	37	192	0
TAP	37	192	1
STR	38	0	1
SXR	38	0	1	96	96	6
TAP	38	96	4
STR	38	192	5
SI_	38	192	5	96	48	2
TAP	38	288	0
STR	39	0	0
SCL	39	0	0	96	48	5
SCR	39	0	0	96	48	3
TAP	39	96	0
BRK	39	192	1
BRK	39	192	7
BRK	39	240	1
BRK	39	240	7
BRK	39	288	1
BRK	39	288	7
STR	40	0	2
SI_	40	0	2	96	48	7
STR	40	0	4
SI_	40	0	4	96	48	7
TAP	40	96	2
TAP	40	96	4
STR	40	192	1
SI_	40	192	1	96	48	4
STR	40	192	7
SI_	40	192	7	96	48	4
TAP	40	288	1
TAP	40	288	7
BRK	41	0	2
BRK	41	0	6
BRK	41	48	3
BRK	41	48	5
BST	41	96	6
SI_	41	96	6	96	48	4
BST	41	96	7
SI_	41	96	7	96	48	1
BRK	41	144	0
BRK	41	144	5
BST	41	192	6
SI_	41	192	6	96	48	2
BST	41	192	7
SI_	41	192	7	96	48	3
BRK	41	288	6
BRK	41	288	7
TAP	42	0	2
TAP	42	0	3
TAP	42	48	2
TAP	42	48	3
STR	42	96	2
SXR	42	96	2	96	192	7
TAP	42	96	3
TAP	42	192	4
TAP	42	288	4
TAP	43	0	5
TAP	43	48	5
STR	43	96	5
SI_	43	96	5	96	48	1
SV_	43	96	5	96	48	0
STR	43	288	2
SI_	43	288	2	96	48	0
TAP	43	288	7
TAP	44	0	2
STR	44	0	6
SI_	44	0	6	96	48	4
HLD	44	96	0	96
TAP	44	96	6
TAP	44	192	3
TAP	44	240	3
STR	44	288	2
SXR	44	288	2	96	144	6
SXR	44	288	2	96	144	7
BRK	45	240	6
BRK	45	240	7
BST	45	288	6
SUR	45	288	6	96	48	3
BST	45	288	7
SUL	45	288	7	96	48	2
BST	46	96	0
SUR	46	96	0	96	48	5
BST	46	96	1
SUL	46	96	1	96	48	4
BRK	46	288	6
BRK	46	288	7
STR	47	0	0
SI_	47	0	0	96	48	4
STR	47	48	7
SI_	47	48	7	96	48	5
STR	47	96	0
SI_	47	96	0	96	48	2
STR	47	144	7
SI_	47	144	7	96	48	3
TAP	47	192	0
TAP	47	240	7
STR	47	288	1
SXR	47	288	1	96	144	5
SXR	47	288	1	96	144	6
STR	48	192	7
SF_	48	192	7	96	48	3
BRK	48	288	7
STR	49	0	0
SUL	49	0	0	96	48	4
STR	49	0	7
SCL	49	0	7	96	48	5
STR	49	96	0
SCR	49	96	0	96	48	2
STR	49	96	7
SUR	49	96	7	96	48	3
BRK	49	192	0
BRK	49	192	7
STR	49	336	1
SI_	49	336	1	96	48	6
SV_	49	336	1	96	48	3
TAP	50	48	1
TAP	50	144	4
TAP	50	144	5
TAP	50	192	4
TAP	50	192	5
BRK	50	288	1
BRK	50	288	7
STR	50	336	0
SV_	50	336	0	96	48	3
SV_	50	336	0	96	48	5
TAP	51	48	0
TAP	51	144	2
TAP	51	144	6
TAP	51	192	2
TAP	51	192	6
TAP	51	288	3
TAP	51	288	5
STR	51	336	1
SI_	51	336	1	96	48	7
SV_	51	336	1	96	48	3
TAP	52	48	1
TAP	52	144	4
TAP	52	144	5
TAP	52	192	4
TAP	52	192	5
TAP	52	288	6
TAP	52	288	7
STR	52	336	0
SV_	52	336	0	96	48	3
STR	52	336	5
SV_	52	336	5	96	48	3
TAP	53	48	0
TAP	53	48	5
TAP	53	144	2
TAP	53	144	4
TAP	53	192	2
TAP	53	192	4
TAP	53	288	0
TAP	53	288	6
STR	53	336	7
SI_	53	336	7	96	48	4
TAP	54	48	7
TAP	54	144	3
TAP	54	144	5
TAP	54	192	3
TAP	54	192	5
TAP	54	288	1
TAP	54	288	7
STR	54	336	0
SCL	54	336	0	96	48	4
SCR	54	336	0	96	48	4
TAP	55	48	0
TAP	55	144	2
TAP	55	144	6
TAP	55	192	2
TAP	55	192	6
BRK	55	240	1
BRK	55	240	7
BRK	55	288	1
BRK	55	288	7
TAP	56	0	2
TAP	56	0	3
TAP	56	64	0
TAP	56	64	7
TAP	56	128	6
TAP	56	128	7
TAP	56	192	4
TAP	56	192	5
STR	56	256	1
SCL	56	256	1	96	224	3
SUR	56	256	1	96	224	3
TAP	56	256	2
TAP	56	352	1
TAP	57	288	2
TAP	57	288	6
TAP	57	320	2
TAP	57	320	6
TAP	57	352	2
TAP	57	352	6
STR	58	0	1
SV_	58	0	1	96	48	3
STR	58	0	5
SV_	58	0	5	96	48	7
TAP	58	96	1
TAP	58	96	5
HLD	58	192	1	96
HLD	58	192	5	96
BRK	59	0	6
BRK	59	0	7
BRK	59	96	0
BRK	59	96	1
BST	59	192	1
SCR	59	192	1	96	48	4
BST	59	192	7
SCL	59	192	7	96	48	4
TAP	59	288	1
TAP	59	288	7
TAP	60	0	3
TAP	60	0	5
TAP	60	48	3
TAP	60	48	5
TAP	60	96	3
STR	60	96	5
SCR	60	96	5	96	96	2
SUR	60	96	5	96	96	2
STR	61	0	3
SI_	61	0	3	96	48	1
STR	61	0	4
SI_	61	0	4	96	48	0
STR	61	96	3
SI_	61	96	3	96	48	7
STR	61	96	4
SI_	61	96	4	96	48	6
TAP	61	192	3
TAP	61	192	4
STR	61	288	1
SCR	61	288	1	96	48	3
STR	61	288	5
SCR	61	288	5	96	48	7
STR	62	0	1
SV_	62	0	1	96	48	7
STR	62	0	5
SV_	62	0	5	96	48	3
TAP	62	96	1
TAP	62	96	5
HLD	62	192	1	96
HLD	62	192	5	96
BRK	63	0	6
BRK	63	0	7
BRK	63	96	0
BRK	63	96	1
BST	63	192	1
SV_	63	192	1	96	48	4
BST	63	192	7
SV_	63	192	7	96	48	4
TAP	63	288	1
TAP	63	288	7
TAP	64	0	3
TAP	64	0	5
TAP	64	48	3
TAP	64	48	5
STR	64	96	3
SSR	64	96	3	96	96	7
STR	64	96	5
SLL	64	96	5	96	96	0
STR	65	0	0
SI_	65	0	0	96	48	4
HLD	65	0	7	72
TAP	65	72	0
BRK	65	144	6
BRK	65	192	6
STR	65	288	1
SCR	65	288	1	96	48	3
STR	65	288	5
SCR	65	288	5	96	48	7
STR	66	0	1
SV_	66	0	1	96	48	7
STR	66	0	5
SV_	66	0	5	96	48	3
TAP	66	96	1
TAP	66	96	5
HLD	66	192	1	96
HLD	66	192	5	96
BRK	67	0	6
BRK	67	0	7
BRK	67	96	0
BRK	67	96	1
BST	67	192	1
SUL	67	192	1	96	48	4
BST	67	192	7
SUR	67	192	7	96	48	4
TAP	67	288	1
TAP	67	288	7
STR	68	0	0
SSR	68	0	0	96	96	4
TAP	68	48	0
BRK	68	96	3
BRK	68	192	3
STR	68	288	3
SCL	68	288	3	96	48	0
STR	68	288	4
SCR	68	288	4	96	48	7
STR	69	0	3
SI_	69	0	3	96	48	7
STR	69	0	4
SI_	69	0	4	96	48	0
TAP	69	96	3
TAP	69	96	4
BRK	69	192	1
BRK	69	192	6
STR	69	288	1
SCR	69	288	1	96	48	3
STR	69	288	5
SCR	69	288	5	96	48	7
STR	70	0	1
SV_	70	0	1	96	48	7
STR	70	0	5
SV_	70	0	5	96	48	3
TAP	70	96	1
TAP	70	96	5
HLD	70	192	1	96
HLD	70	192	5	96
BRK	71	0	6
BRK	71	0	7
BRK	71	96	0
BRK	71	96	1
BST	71	192	1
SI_	71	192	1	96	48	4
BST	71	192	7
SI_	71	192	7	96	48	4
TAP	71	288	1
TAP	71	288	7
TAP	72	0	3
TAP	72	0	5
TAP	72	48	2
TAP	72	48	6
STR	72	96	1
SCR	72	96	1	96	96	6
TAP	72	96	7
TAP	72	192	4
TAP	73	0	0
TAP	73	0	7
TAP	73	72	4
TAP	73	72	6
TAP	73	144	1
TAP	73	144	3
BRK	73	192	0
BRK	73	192	7
STR	73	288	0
SI_	73	288	0	96	48	3
STR	74	0	7
SXR	74	0	7	96	96	7
TAP	74	96	0
STR	74	192	0
SSL	74	192	0	96	48	4
TAP	74	288	6
STR	75	0	0
SI_	75	0	0	96	48	4
STR	75	0	7
SV_	75	0	7	96	48	4
STR	75	192	0
SSL	75	192	0	96	48	4
TAP	75	288	5
TAP	76	0	0
TAP	76	0	7
TAP	76	48	6
TAP	76	72	4
TAP	76	120	1
TAP	76	144	3
TAP	76	192	2
TAP	76	192	4
TAP	76	240	2
TAP	76	240	4
BST	76	288	3
SI_	76	288	3	96	48	0
SI_	76	288	3	96	48	1
BST	77	0	3
SI_	77	0	3	96	48	5
SI_	77	0	3	96	48	6
BST	77	96	3
SI_	77	96	3	96	48	0
SI_	77	96	3	96	48	1
BST	77	192	3
SI_	77	192	3	96	48	5
SI_	77	192	3	96	48	6
BRK	77	288	3
TAP	78	0	1
TAP	78	0	5
STR	78	96	3
SI_	78	96	3	96	96	6
STR	78	192	6
SI_	78	192	6	96	96	2
STR	78	288	2
SV_	78	288	2	96	96	7
TAP	79	0	7
TAP	79	96	4
TAP	79	144	4
STR	79	192	1
SCR	79	192	1	96	48	4
HLD	79	192	5	192
TAP	79	288	1
TAP	80	0	4
TAP	80	12	3
TAP	80	24	2
TAP	80	36	1
TAP	80	48	0
TAP	80	60	7
TAP	80	72	6
TAP	80	84	5
STR	80	96	4
SUR	80	96	4	96	48	0
TAP	80	144	4
TAP	80	192	1
TAP	80	264	3
TAP	80	336	2
TAP	81	0	2
TAP	81	12	3
TAP	81	24	4
TAP	81	36	5
TAP	81	48	6
TAP	81	60	7
TAP	81	72	0
TAP	81	84	1
TAP	81	96	2
TAP	81	108	3
TAP	81	120	4
TAP	81	132	5
TAP	81	144	6
TAP	81	156	7
TAP	81	168	0
TAP	81	180	1
TAP	81	192	2
BRK	81	240	0
BRK	81	240	7
BRK	81	288	1
BRK	81	288	6

T_REC_TAP	332
T_REC_BRK	77
T_REC_XTP	0
T_REC_HLD	28
T_REC_XHO	0
T_REC_STR	126
T_REC_BST	23
T_REC_XST	0
T_REC_TTP	0
T_REC_THO	0
T_REC_SLD	164
T_REC_ALL	750
T_NUM_TAP	458
T_NUM_BRK	100
T_NUM_HLD	28
T_NUM_SLD	164
T_NUM_ALL	750
T_JUDGE_TAP	558
T_JUDGE_HLD	47
T_JUDGE_SLD	164
T_JUDGE_ALL	769
TTM_EACHPAIRS	188
TTM_SCR_TAP	229000
TTM_SCR_BRK	260000
TTM_SCR_HLD	28000
TTM_SCR_SLD	246000
TTM_SCR_ALL	763000
TTM_SCR_S	730450
TTM_SCR_SS	753000
TTM_RAT_ACV	10132

