VERSION	0.00.00	1.03.00
FES_MODE	0
BPM_DEF	175.000	175.000	175.000	175.000
MET_DEF	4	4
RESOLUTION	384
CLK_DEF	384
COMPATIBLE_CODE	MA2

BPM	0	0	175.000
MET	0	0	4	4

HLD	1	336	2	96
TAP	2	48	3
TAP	2	96	3
HLD	2	192	4	96
HLD	2	192	5	96
HLD	2	336	3	96
TAP	3	48	2
TAP	3	96	2
HLD	3	192	0	96
HLD	3	192	1	96
HLD	3	336	3	96
TAP	4	48	4
TAP	4	96	4
HLD	4	192	5	96
HLD	4	192	6	96
HLD	4	336	4	96
TAP	5	48	3
TAP	5	96	3
HLD	5	192	1	96
HLD	5	192	2	96
HLD	5	336	3	96
TAP	6	48	4
TAP	6	96	4
HLD	6	192	5	96
HLD	6	192	6	96
HLD	6	336	4	96
TAP	7	48	3
TAP	7	96	3
HLD	7	192	1	96
HLD	7	192	2	96
TAP	8	48	4
HLD	8	96	6	96
TAP	8	192	5
TAP	8	240	4
TAP	8	288	3
TAP	8	336	2
TAP	9	0	0
TAP	9	0	1
TAP	9	72	6
TAP	9	72	7
TAP	9	144	2
TAP	9	144	3
TAP	9	192	4
TAP	9	192	5
TAP	10	0	6
TAP	10	0	7
TAP	10	48	5
TAP	10	96	4
TAP	10	192	2
TAP	10	192	3
TAP	10	240	4
TAP	10	288	5
TAP	11	0	0
TAP	11	0	7
TAP	11	48	6
TAP	11	96	5
TAP	11	192	3
TAP	11	192	4
TAP	11	240	5
TAP	11	288	6
TAP	12	0	0
TAP	12	0	1
TAP	12	48	2
TAP	12	96	3
TAP	12	192	4
TAP	12	192	5
TAP	12	240	3
TAP	12	288	2
TAP	13	0	0
HLD	13	0	1	96
BRK	13	96	7
TAP	13	144	6
BRK	13	192	6
HLD	13	192	7	96
BRK	13	288	0
TAP	14	0	0
TAP	14	48	0
TAP	14	96	1
TAP	14	144	1
TAP	14	192	2
TAP	14	240	2
TAP	14	288	3
TAP	14	336	3
TAP	15	0	4
TAP	15	48	4
TAP	15	96	5
TAP	15	144	5
TAP	15	192	6
TAP	15	240	6
TAP	15	288	7
TAP	15	336	7
TAP	16	0	0
TAP	16	12	7
TAP	16	24	6
TAP	16	36	5
TAP	16	48	4
TAP	16	60	3
TAP	16	72	2
TAP	16	84	1
BRK	16	96	0
TAP	16	144	7
HLD	16	192	5	72
TAP	16	264	4
TAP	16	336	6
TAP	17	0	7
TAP	17	48	0
TAP	17	96	1
HLD	17	120	1	72
STR	17	192	2
SI_	17	192	2	96	48	7
TAP	18	48	7
TAP	18	96	6
TAP	18	144	7
TAP	18	240	2
TAP	18	288	3
TAP	18	336	2
TAP	19	48	1
TAP	19	96	0
TAP	19	144	1
TAP	19	192	2
TAP	19	240	3
TAP	19	288	4
TAP	19	336	5
TAP	20	48	6
TAP	20	96	7
TAP	20	144	6
TAP	20	240	3
TAP	20	288	2
TAP	20	336	3
TAP	21	0	4
TAP	21	48	5
TAP	21	96	6
TAP	21	144	7
TAP	21	192	0
TAP	21	192	1
TAP	21	240	7
TAP	21	288	6
TAP	21	336	5
TAP	22	0	3
TAP	22	48	4
TAP	22	96	5
TAP	22	144	6
HLD	22	192	7	96
TAP	23	0	5
TAP	23	48	4
TAP	23	96	3
TAP	23	144	2
HLD	23	192	1	96
TAP	24	0	2
TAP	24	0	3
TAP	24	48	2
TAP	24	48	3
TAP	24	96	4
TAP	24	96	5
TAP	24	192	6
TAP	24	192	7
TAP	24	240	6
TAP	24	240	7
TAP	24	288	4
TAP	24	288	5
BRK	25	0	6
BRK	25	0	7
BRK	25	48	4
BRK	25	48	5
BRK	25	96	2
BRK	25	96	3
BRK	25	144	0
BRK	25	144	1
BRK	25	192	6
BRK	25	192	7
TAP	26	48	0
TAP	26	96	1
TAP	26	96	2
TAP	26	144	0
TAP	26	240	5
TAP	26	288	3
TAP	26	288	4
TAP	26	336	5
TAP	27	48	7
TAP	27	96	0
TAP	27	96	1
TAP	27	144	7
TAP	27	192	6
TAP	27	240	5
TAP	27	240	6
TAP	27	288	4
TAP	27	336	3
TAP	27	336	4
TAP	28	48	6
TAP	28	96	0
TAP	28	96	7
TAP	28	144	6
TAP	28	240	3
TAP	28	288	1
TAP	28	288	2
TAP	28	336	3
TAP	29	0	4
TAP	29	0	5
TAP	29	48	6
TAP	29	96	5
TAP	29	144	4
TAP	29	192	2
TAP	29	192	3
TAP	29	240	4
TAP	29	240	5
TAP	29	288	6
TAP	29	288	7
TAP	29	336	0
TAP	29	336	1
TAP	30	48	2
TAP	30	96	3
TAP	30	144	4
TAP	30	192	5
TAP	30	240	6
TAP	30	288	7
HLD	30	336	0	96
TAP	31	48	7
TAP	31	96	6
TAP	31	144	5
TAP	31	192	4
TAP	31	240	3
TAP	31	288	2
TAP	31	336	1
TAP	32	0	0
TAP	32	0	1
TAP	32	48	0
TAP	32	48	1
TAP	32	96	1
TAP	32	96	2
TAP	32	144	0
TAP	32	144	7
TAP	32	192	0
TAP	32	192	6
TAP	32	240	5
TAP	32	240	7
TAP	32	288	0
TAP	32	288	4
TAP	32	336	1
TAP	32	336	5
STR	33	0	2
SCR	33	0	2	96	48	5
STR	33	0	6
SCR	33	0	6	96	48	1
STR	33	96	6
SI_	33	96	6	96	48	2
BRK	33	288	1
BRK	33	288	6
HLD	34	0	0	144
TAP	34	0	3
TAP	34	96	1
TAP	34	144	1
TAP	34	240	7
BRK	34	288	6
TAP	35	0	6
TAP	35	48	5
TAP	35	72	4
TAP	35	96	5
TAP	35	144	6
TAP	35	192	7
TAP	35	240	0
BRK	35	288	0
HLD	36	0	0	192
TAP	36	0	7
TAP	36	48	6
TAP	36	96	5
TAP	36	144	4
HLD	36	192	3	192
TAP	36	240	4
TAP	36	288	5
TAP	36	336	6
TAP	37	0	7
TAP	37	48	6
TAP	37	96	5
TAP	37	144	4
TAP	37	192	3
TAP	37	240	2
BRK	37	288	1
STR	38	0	1
SCR	38	0	1	96	48	4
STR	38	0	5
SCR	38	0	5	96	48	0
STR	38	192	0
SI_	38	192	0	96	48	4
TAP	38	240	0
HLD	39	0	7	96
STR	39	96	6
SI_	39	96	6	96	48	3
STR	39	192	0
SI_	39	192	0	96	48	4
BRK	39	192	6
BRK	39	288	0
TAP	40	0	4
HLD	40	0	5	144
TAP	40	96	1
TAP	40	144	1
TAP	40	240	7
BRK	40	288	7
TAP	41	0	0
TAP	41	48	1
TAP	41	96	1
TAP	41	120	0
TAP	41	144	7
TAP	41	168	6
BRK	41	192	4
BRK	41	192	5
BRK	41	240	6
BRK	41	240	7
BRK	41	288	0
BRK	41	288	1
TAP	42	0	7
TAP	42	48	6
TAP	42	96	5
TAP	42	144	4
TAP	42	192	1
TAP	42	192	2
TAP	42	240	1
TAP	42	240	2
TAP	42	288	1
TAP	42	288	2
TAP	43	0	3
TAP	43	48	4
TAP	43	72	4
TAP	43	96	5
TAP	43	144	5
HLD	43	192	5	96
HLD	43	192	6	96
STR	44	0	0
SCR	44	0	0	96	48	3
STR	44	0	4
SCR	44	0	4	96	48	7
STR	44	192	0
SCL	44	192	0	96	48	5
STR	44	192	4
SCL	44	192	4	96	48	1
BRK	45	0	1
BRK	45	0	5
BRK	45	48	2
BRK	45	48	6
BRK	45	96	3
BRK	45	96	7
BRK	45	144	0
BRK	45	144	4
BRK	45	192	1
BRK	45	192	5
TAP	46	0	3
HLD	46	0	7	144
TAP	46	96	5
TAP	46	144	5
TAP	46	240	1
BRK	46	288	1
TAP	47	0	7
TAP	47	48	1
TAP	47	96	5
TAP	47	144	3
TAP	47	192	5
TAP	47	240	1
BRK	47	288	7
HLD	48	0	0	144
TAP	48	0	4
TAP	48	96	2
TAP	48	144	2
TAP	48	240	6
STR	48	288	6
SI_	48	288	6	96	48	2
STR	49	0	7
SI_	49	0	7	96	48	3
STR	49	96	0
SI_	49	96	0	96	48	4
BRK	49	288	1
TAP	49	336	1
TAP	49	336	2
TAP	50	48	0
TAP	50	48	1
TAP	50	96	0
TAP	50	96	1
HLD	50	192	6	96
HLD	50	192	7	96
TAP	50	336	0
TAP	50	336	1
TAP	51	48	1
TAP	51	48	2
TAP	51	96	1
TAP	51	96	2
HLD	51	192	3	96
HLD	51	192	4	96
TAP	51	336	0
TAP	51	336	1
TAP	52	48	0
TAP	52	48	7
TAP	52	96	0
TAP	52	96	7
HLD	52	192	5	96
HLD	52	192	6	96
TAP	52	336	1
TAP	52	336	2
TAP	53	48	2
TAP	53	48	3
TAP	53	96	2
TAP	53	96	3
HLD	53	192	4	96
HLD	53	192	5	96
BRK	53	336	2
BRK	53	336	3
BRK	54	48	0
BRK	54	48	1
BRK	54	96	0
BRK	54	96	1
HLD	54	192	6	96
HLD	54	192	7	96
BRK	54	336	0
BRK	54	336	1
BRK	55	48	2
BRK	55	48	3
BRK	55	96	2
BRK	55	96	3
HLD	55	192	4	96
HLD	55	192	5	96
TAP	56	0	2
TAP	56	0	3
TAP	56	64	0
TAP	56	64	7
TAP	56	128	6
TAP	56	128	7
TAP	56	192	4
TAP	56	192	5
TAP	56	256	1
TAP	56	256	2
HLD	56	336	0	336
HLD	56	336	1	336
TAP	58	0	0
TAP	58	0	7
TAP	58	96	1
TAP	58	96	5
TAP	58	192	2
TAP	58	192	6
TAP	58	288	0
TAP	58	288	4
TAP	59	0	6
TAP	59	0	7
TAP	59	96	2
TAP	59	96	3
TAP	59	192	0
TAP	59	192	1
TAP	59	288	7
BRK	59	336	6
BRK	59	336	7
TAP	60	48	0
HLD	60	96	1	96
TAP	60	192	2
TAP	60	240	3
TAP	60	288	4
TAP	60	336	5
BRK	61	0	6
BRK	61	0	7
BRK	61	96	0
BRK	61	96	1
BRK	61	192	6
BRK	61	192	7
TAP	62	0	0
TAP	62	0	7
TAP	62	96	2
TAP	62	96	6
TAP	62	192	1
TAP	62	192	5
TAP	62	288	3
TAP	62	288	7
TAP	63	0	0
TAP	63	0	1
TAP	63	96	4
TAP	63	96	5
TAP	63	192	6
TAP	63	192	7
TAP	63	288	0
BRK	63	336	0
BRK	63	336	1
TAP	64	48	7
HLD	64	96	6	96
TAP	64	192	5
TAP	64	240	4
TAP	64	288	3
TAP	64	336	2
BRK	65	0	0
BRK	65	0	1
BRK	65	72	2
BRK	65	72	3
BRK	65	144	5
BRK	65	144	6
BRK	65	192	0
BRK	65	192	7
STR	66	0	1
SI_	66	0	1	96	48	4
TAP	66	0	7
BRK	66	96	7
TAP	66	192	0
STR	66	192	6
SI_	66	192	6	96	48	3
BRK	66	288	0
STR	67	0	0
SI_	67	0	0	96	48	4
TAP	67	0	1
BRK	67	96	1
TAP	67	192	6
STR	67	192	7
SI_	67	192	7	96	48	3
BRK	67	288	0
BRK	67	336	0
TAP	68	48	7
HLD	68	96	6	96
TAP	68	192	5
TAP	68	240	4
TAP	68	288	3
TAP	68	336	2
STR	69	0	2
SI_	69	0	2	96	48	7
STR	69	96	0
SI_	69	96	0	96	48	4
BRK	69	96	2
BRK	69	192	0
STR	69	192	6
SI_	69	192	6	96	48	2
BRK	69	288	6
TAP	70	0	0
STR	70	0	6
SI_	70	0	6	96	48	3
BRK	70	96	0
STR	70	192	1
SI_	70	192	1	96	48	4
TAP	70	192	7
BRK	70	288	7
TAP	71	0	6
STR	71	0	7
SI_	71	0	7	96	48	3
BRK	71	96	6
STR	71	192	0
SI_	71	192	0	96	48	4
TAP	71	192	1
BRK	71	288	7
BRK	71	336	7
TAP	72	48	0
HLD	72	96	1	96
TAP	72	192	2
TAP	72	240	3
TAP	72	288	4
TAP	72	336	5
BRK	73	0	6
BRK	73	0	7
BRK	73	72	4
BRK	73	72	5
BRK	73	144	1
BRK	73	144	2
BRK	73	192	0
BRK	73	192	7
TAP	74	0	4
TAP	74	0	5
TAP	74	96	3
TAP	74	96	4
HLD	74	192	3	96
HLD	74	192	4	96
TAP	74	336	5
TAP	75	48	6
HLD	75	96	6	96
HLD	75	192	0	96
TAP	75	288	7
TAP	75	300	6
TAP	75	312	5
TAP	75	324	4
BRK	75	336	3
TAP	76	0	2
TAP	76	48	1
TAP	76	72	2
TAP	76	120	2
TAP	76	144	3
TAP	76	168	4
TAP	76	192	5
TAP	76	240	6
TAP	76	240	7
TAP	76	288	0
TAP	76	288	7
TAP	76	336	0
TAP	76	336	1
TAP	77	0	1
STR	77	0	7
SI_	77	0	7	96	48	3
BRK	77	96	7
STR	77	192	0
SI_	77	192	0	96	48	4
TAP	77	192	6
BRK	77	288	0
TAP	78	0	7
TAP	78	48	7
TAP	78	96	6
TAP	78	144	6
TAP	78	192	5
TAP	78	240	5
TAP	78	288	4
TAP	78	336	4
TAP	79	0	3
TAP	79	48	3
TAP	79	96	2
TAP	79	144	2
TAP	79	192	1
TAP	79	240	1
TAP	79	288	0
TAP	79	336	0
TAP	80	0	7
TAP	80	12	0
TAP	80	24	1
TAP	80	36	2
TAP	80	48	3
TAP	80	60	4
TAP	80	72	5
TAP	80	84	6
BRK	80	96	7
TAP	80	144	0
HLD	80	192	2	72
TAP	80	264	3
TAP	80	336	1
TAP	81	0	0
TAP	81	48	7
TAP	81	96	6
HLD	81	120	6	72
STR	81	192	5
SI_	81	192	5	96	48	0
BRK	81	240	7
BRK	81	288	7

T_REC_TAP	408
T_REC_BRK	98
T_REC_XTP	0
T_REC_HLD	59
T_REC_XHO	0
T_REC_STR	30
T_REC_BST	0
T_REC_XST	0
T_REC_TTP	0
T_REC_THO	0
T_REC_SLD	30
T_REC_ALL	625
T_NUM_TAP	438
T_NUM_BRK	98
T_NUM_HLD	59
T_NUM_SLD	30
T_NUM_ALL	625
T_JUDGE_TAP	536
T_JUDGE_HLD	136
T_JUDGE_SLD	30
T_JUDGE_ALL	702
TTM_EACHPAIRS	148
TTM_SCR_TAP	219000
TTM_SCR_BRK	254800
TTM_SCR_HLD	59000
TTM_SCR_SLD	45000
TTM_SCR_ALL	577800
TTM_SCR_S	551000
TTM_SCR_SS	568000
TTM_RAT_ACV	10172

