VERSION	0.00.00	1.03.00
FES_MODE	0
BPM_DEF	175.000	175.000	175.000	175.000
MET_DEF	4	4
RESOLUTION	384
CLK_DEF	384
COMPATIBLE_CODE	MA2

BPM	0	0	175.000
MET	0	0	4	4

HLD	1	336	1	96
TAP	2	48	0
HLD	2	96	2	96
TAP	2	192	3
TAP	2	240	2
TAP	2	288	2
HLD	2	336	6	96
TAP	3	48	7
HLD	3	96	5	96
TAP	3	192	4
TAP	3	240	5
TAP	3	288	5
HLD	3	336	1	96
TAP	4	48	0
HLD	4	96	2	96
TAP	4	192	3
TAP	4	240	1
TAP	4	288	1
HLD	4	336	6	96
TAP	5	48	7
HLD	5	96	5	96
TAP	5	192	4
TAP	5	240	6
TAP	5	288	6
HLD	5	336	0	96
TAP	6	48	1
HLD	6	96	3	96
TAP	6	192	2
TAP	6	240	1
TAP	6	288	1
HLD	6	336	7	96
TAP	7	48	6
HLD	7	96	4	96
TAP	7	192	5
TAP	7	240	6
TAP	7	288	6
STR	8	0	1
SCR	8	0	1	96	48	4
STR	8	192	6
SCL	8	192	6	96	48	3
TAP	9	0	0
TAP	9	72	7
TAP	9	144	0
BRK	9	192	0
BRK	9	192	7
TAP	10	0	6
HLD	10	0	7	96
TAP	10	96	5
HLD	10	192	0	96
TAP	10	192	1
TAP	10	288	2
HLD	11	0	4	96
TAP	11	0	5
TAP	11	96	6
TAP	11	192	2
HLD	11	192	3	96
TAP	11	288	1
HLD	12	0	6	96
TAP	12	0	7
TAP	12	96	5
TAP	12	192	0
HLD	12	192	1	96
TAP	12	288	2
HLD	13	0	3	288
TAP	13	0	7
TAP	13	96	6
TAP	13	192	5
TAP	13	288	4
HLD	14	0	5	96
TAP	14	0	6
TAP	14	96	7
TAP	14	192	1
HLD	14	192	2	96
TAP	14	288	0
TAP	15	0	5
HLD	15	0	6	96
TAP	15	96	4
HLD	15	192	1	96
TAP	15	192	2
TAP	15	288	3
STR	16	0	4
SI_	16	0	4	96	48	0
HLD	16	192	0	96
TAP	16	288	6
STR	17	0	7
SCR	17	0	7	96	96	2
BRK	17	288	0
TAP	18	0	7
TAP	18	48	7
TAP	18	96	7
TAP	18	144	6
TAP	18	240	0
TAP	18	288	0
TAP	18	336	1
TAP	19	48	6
TAP	19	96	6
TAP	19	144	5
TAP	19	192	3
TAP	19	192	4
TAP	19	288	5
TAP	19	288	6
TAP	20	0	0
TAP	20	48	0
TAP	20	96	0
TAP	20	144	1
TAP	20	240	6
TAP	20	288	6
TAP	20	336	5
TAP	21	48	1
TAP	21	96	1
TAP	21	144	2
TAP	21	192	3
TAP	21	192	5
TAP	21	288	2
TAP	21	288	4
HLD	22	0	6	192
TAP	22	192	4
HLD	23	0	1	192
TAP	23	192	3
HLD	24	0	7	96
TAP	24	96	6
HLD	24	192	0	96
TAP	24	288	1
HLD	25	0	7	96
STR	25	96	6
SCR	25	96	6	96	48	1
TAP	26	0	0
TAP	26	48	0
TAP	26	48	1
TAP	26	144	6
TAP	26	144	7
TAP	26	240	0
TAP	26	240	1
TAP	26	336	6
TAP	26	336	7
TAP	27	48	4
TAP	27	48	5
TAP	27	144	2
TAP	27	144	3
TAP	27	192	3
TAP	27	288	4
TAP	27	288	5
TAP	28	0	7
TAP	28	48	6
TAP	28	48	7
TAP	28	144	0
TAP	28	144	1
TAP	28	240	6
TAP	28	240	7
TAP	28	336	0
TAP	28	336	1
TAP	29	48	2
TAP	29	48	3
TAP	29	144	4
TAP	29	144	5
TAP	29	192	4
TAP	29	288	2
TAP	29	288	3
HLD	30	0	0	96
HLD	30	96	1	96
HLD	30	192	2	96
HLD	30	288	3	96
HLD	31	0	7	96
HLD	31	96	6	96
HLD	31	192	5	96
TAP	31	288	4
HLD	32	0	5	96
HLD	32	0	6	96
HLD	32	192	1	96
HLD	32	192	2	96
BRK	33	96	3
BRK	33	96	5
BRK	33	192	2
BRK	33	192	4
STR	34	0	2
SI_	34	0	2	96	96	5
STR	35	0	6
SI_	35	0	6	96	96	1
STR	36	0	3
SI_	36	0	3	96	48	0
STR	36	192	7
SI_	36	192	7	96	48	4
STR	37	0	0
SI_	37	0	0	96	48	5
STR	37	192	4
SI_	37	192	4	96	48	1
STR	38	0	0
SCR	38	0	0	96	48	3
STR	38	0	4
SCR	38	0	4	96	48	7
STR	38	192	0
SI_	38	192	0	96	48	5
STR	38	192	4
SI_	38	192	4	96	48	1
HLD	39	0	6	288
TAP	39	96	2
BRK	39	192	1
BRK	39	288	1
HLD	40	0	1	96
TAP	40	96	0
HLD	40	192	6	96
TAP	40	288	7
HLD	41	0	2	96
TAP	41	96	3
HLD	41	192	5	96
BRK	41	240	4
BRK	41	288	4
TAP	42	0	7
TAP	42	96	7
TAP	42	192	7
TAP	43	0	0
TAP	43	96	0
TAP	43	192	0
TAP	44	0	0
TAP	44	0	7
TAP	44	96	3
TAP	44	96	4
STR	44	192	3
SCL	44	192	3	96	48	0
STR	44	192	4
SCR	44	192	4	96	48	7
STR	45	0	0
SCR	45	0	0	96	96	3
STR	45	0	7
SCL	45	0	7	96	96	4
TAP	46	0	1
STR	46	0	6
SI_	46	0	6	96	48	1
STR	46	192	2
SI_	46	192	2	96	48	5
TAP	46	192	5
TAP	47	0	3
STR	47	0	7
SI_	47	0	7	96	48	3
STR	47	192	0
SI_	47	192	0	96	48	4
TAP	47	192	4
STR	48	0	2
SI_	48	0	2	96	48	5
STR	48	0	6
SI_	48	0	6	96	48	1
STR	48	192	0
SI_	48	192	0	96	48	4
STR	48	192	7
SI_	48	192	7	96	48	3
STR	49	0	3
SCL	49	0	3	96	48	0
STR	49	0	4
SCR	49	0	4	96	48	7
BRK	49	192	1
BRK	49	192	6
TAP	49	336	4
TAP	49	336	6
TAP	50	48	3
TAP	50	96	1
TAP	50	96	2
TAP	50	192	3
TAP	50	240	7
TAP	50	288	7
TAP	50	336	1
TAP	50	336	3
TAP	51	48	4
TAP	51	96	5
TAP	51	96	6
TAP	51	192	4
TAP	51	240	0
TAP	51	288	0
TAP	51	336	4
TAP	51	336	6
TAP	52	48	3
TAP	52	96	1
TAP	52	96	2
TAP	52	192	3
TAP	52	240	7
TAP	52	288	7
TAP	52	336	1
TAP	52	336	3
TAP	53	48	4
TAP	53	96	5
TAP	53	96	6
TAP	53	192	4
TAP	53	240	0
TAP	53	288	0
TAP	53	336	5
TAP	53	336	7
TAP	54	48	4
TAP	54	96	2
TAP	54	96	3
TAP	54	192	4
TAP	54	192	5
TAP	54	240	7
TAP	54	288	7
TAP	54	336	0
TAP	54	336	2
TAP	55	48	3
TAP	55	96	4
TAP	55	96	5
TAP	55	192	2
TAP	55	192	3
TAP	55	240	0
TAP	55	288	0
TAP	56	0	7
TAP	56	64	6
TAP	56	128	5
TAP	56	192	4
TAP	56	256	3
TAP	56	336	2
TAP	57	0	1
TAP	57	96	3
TAP	57	192	5
TAP	57	288	7
TAP	58	0	2
TAP	58	0	4
TAP	58	96	3
TAP	58	96	5
TAP	58	192	1
TAP	58	192	6
TAP	59	0	1
TAP	59	0	5
TAP	59	96	2
TAP	59	96	6
TAP	59	192	1
TAP	59	192	5
TAP	59	288	2
TAP	59	288	6
TAP	60	0	1
TAP	60	0	3
TAP	60	96	2
TAP	60	192	4
TAP	60	192	6
HLD	60	288	5	288
TAP	61	0	0
TAP	61	96	0
BRK	61	192	0
TAP	62	0	3
TAP	62	0	5
TAP	62	96	2
TAP	62	96	4
TAP	62	192	1
TAP	62	192	6
TAP	63	0	1
TAP	63	0	5
TAP	63	96	2
TAP	63	96	6
TAP	63	192	1
TAP	63	192	5
STR	63	288	7
SCR	63	288	7	96	48	2
STR	64	96	0
SCL	64	96	0	96	48	5
HLD	64	288	2	288
TAP	65	0	7
TAP	65	72	7
TAP	65	144	7
BRK	65	192	7
TAP	66	0	3
TAP	66	0	5
TAP	66	96	2
TAP	66	96	4
HLD	66	192	1	96
HLD	66	192	6	96
TAP	67	0	1
TAP	67	0	4
TAP	67	96	3
TAP	67	96	6
TAP	67	192	1
TAP	67	192	4
TAP	67	288	3
TAP	67	288	4
STR	68	0	5
SI_	68	0	5	96	48	0
STR	68	192	2
SI_	68	192	2	96	48	7
STR	69	0	1
SI_	69	0	1	96	48	4
STR	69	96	6
SI_	69	96	6	96	48	3
BRK	69	192	4
TAP	70	0	3
TAP	70	0	5
TAP	70	96	2
TAP	70	96	4
HLD	70	192	1	96
HLD	70	192	6	96
TAP	71	0	1
TAP	71	0	4
TAP	71	96	3
TAP	71	96	6
TAP	71	192	1
TAP	71	192	4
STR	71	288	1
SCL	71	288	1	96	48	6
TAP	71	288	6
STR	72	96	5
SCL	72	96	5	96	48	2
HLD	72	288	2	288
TAP	73	0	7
TAP	73	72	7
TAP	73	144	7
BRK	73	192	7
HLD	74	0	1	288
STR	74	96	0
SCL	74	96	0	96	48	5
HLD	75	0	6	288
STR	75	96	7
SCR	75	96	7	96	48	2
HLD	76	0	1	288
STR	76	96	0
SCL	76	96	0	96	48	5
TAP	77	0	0
STR	77	0	1
SI_	77	0	1	96	48	4
BRK	77	96	0
STR	77	192	6
SI_	77	192	6	96	48	3
TAP	77	192	7
BRK	77	288	7
TAP	78	0	0
STR	78	96	1
SCR	78	96	1	96	48	4
TAP	79	0	7
STR	79	96	6
SCL	79	96	6	96	48	3
STR	80	0	4
SI_	80	0	4	96	48	0
TAP	80	192	6
TAP	80	192	7
TAP	80	288	4
TAP	80	288	5
TAP	81	0	2
TAP	81	0	3
TAP	81	96	0
TAP	81	96	1
HLD	81	192	5	96
BRK	81	240	0
BRK	81	288	0

T_REC_TAP	269
T_REC_BRK	21
T_REC_XTP	0
T_REC_HLD	56
T_REC_XHO	0
T_REC_STR	45
T_REC_BST	0
T_REC_XST	0
T_REC_TTP	0
T_REC_THO	0
T_REC_SLD	45
T_REC_ALL	436
T_NUM_TAP	314
T_NUM_BRK	21
T_NUM_HLD	56
T_NUM_SLD	45
T_NUM_ALL	436
T_JUDGE_TAP	335
T_JUDGE_HLD	148
T_JUDGE_SLD	45
T_JUDGE_ALL	528
TTM_EACHPAIRS	97
TTM_SCR_TAP	157000
TTM_SCR_BRK	54600
TTM_SCR_HLD	56000
TTM_SCR_SLD	67500
TTM_SCR_ALL	335100
TTM_SCR_S	323050
TTM_SCR_SS	333000
TTM_RAT_ACV	10063

