VERSION	0.00.00	1.03.00
FES_MODE	0
BPM_DEF	175.000	175.000	175.000	175.000
MET_DEF	4	4
RESOLUTION	384
CLK_DEF	384
COMPATIBLE_CODE	MA2

BPM	0	0	175.000
MET	0	0	4	4

TAP	2	0	0
TAP	2	96	1
TAP	2	96	7
TAP	2	192	1
TAP	2	192	7
TAP	3	0	7
TAP	3	96	0
TAP	3	96	6
TAP	3	192	0
TAP	3	192	6
TAP	4	0	1
TAP	4	96	0
TAP	4	96	2
TAP	4	192	0
TAP	4	192	2
TAP	5	0	6
TAP	5	96	5
TAP	5	96	7
TAP	5	192	5
TAP	5	192	7
TAP	6	0	3
TAP	6	96	2
TAP	6	96	4
TAP	6	192	2
TAP	6	192	4
TAP	7	0	4
TAP	7	96	3
TAP	7	96	5
TAP	7	192	3
TAP	7	192	5
TAP	8	96	0
TAP	8	96	1
TAP	8	288	6
TAP	8	288	7
TAP	9	0	0
TAP	9	96	0
TAP	9	192	0
TAP	9	192	7
TAP	10	0	6
TAP	10	0	7
TAP	10	96	6
TAP	10	96	7
TAP	10	192	1
TAP	10	192	6
TAP	11	0	1
TAP	11	0	7
TAP	11	96	0
TAP	11	96	6
TAP	11	192	1
TAP	11	192	7
TAP	12	0	6
TAP	12	96	6
TAP	12	192	1
TAP	12	288	1
TAP	13	0	0
TAP	13	96	0
TAP	13	192	0
TAP	13	288	0
TAP	14	0	0
TAP	14	0	1
TAP	14	96	0
TAP	14	96	1
TAP	14	192	1
TAP	14	192	6
TAP	15	0	0
TAP	15	0	6
TAP	15	96	1
TAP	15	96	7
TAP	15	192	0
TAP	15	192	6
TAP	16	0	1
TAP	16	96	0
TAP	16	192	7
TAP	16	288	6
TAP	17	0	0
TAP	17	96	0
TAP	17	192	0
TAP	17	192	7
TAP	18	96	6
TAP	18	96	7
TAP	18	288	0
TAP	18	288	7
TAP	19	96	0
TAP	19	96	1
TAP	19	192	7
TAP	19	288	7
TAP	20	96	0
TAP	20	96	1
TAP	20	288	0
TAP	20	288	7
TAP	21	0	6
TAP	21	96	6
TAP	21	192	1
TAP	21	288	1
TAP	22	0	7
TAP	22	48	7
TAP	22	96	7
TAP	22	144	7
TAP	22	192	7
TAP	23	0	0
TAP	23	48	0
TAP	23	96	0
TAP	23	144	0
TAP	23	192	0
TAP	24	0	6
TAP	24	48	6
TAP	24	96	6
TAP	24	192	1
TAP	24	240	1
TAP	24	288	1
TAP	25	0	7
TAP	25	48	0
TAP	25	96	7
TAP	25	144	0
BRK	25	192	7
TAP	26	0	1
TAP	26	96	1
TAP	26	192	2
TAP	26	288	2
TAP	27	0	1
TAP	27	96	1
TAP	27	192	1
TAP	27	192	7
TAP	27	288	1
TAP	27	288	7
TAP	28	0	6
TAP	28	96	6
TAP	28	192	5
TAP	28	288	5
TAP	29	0	0
TAP	29	0	6
TAP	29	96	0
TAP	29	96	6
TAP	29	192	1
TAP	29	192	7
TAP	29	288	1
TAP	29	288	7
TAP	30	0	6
TAP	30	96	7
TAP	30	192	6
TAP	30	288	7
TAP	31	0	1
TAP	31	96	0
TAP	31	192	1
TAP	31	288	0
TAP	32	0	2
TAP	32	96	3
TAP	32	192	4
TAP	32	288	5
BRK	33	96	0
BRK	33	96	6
BRK	33	192	1
BRK	33	192	7
STR	34	0	1
SI_	34	0	1	96	96	6
STR	35	0	5
SI_	35	0	5	96	96	2
STR	36	0	0
SI_	36	0	0	96	96	3
STR	37	0	4
SI_	37	0	4	96	96	7
TAP	38	0	1
STR	38	96	1
SI_	38	96	1	96	96	6
BRK	39	192	0
BRK	39	192	7
BRK	39	288	0
BRK	39	288	7
STR	40	0	5
SCL	40	0	5	96	96	2
TAP	41	0	1
TAP	41	96	6
TAP	41	192	0
TAP	41	192	7
TAP	41	240	0
TAP	41	240	7
TAP	41	288	0
TAP	41	288	7
HLD	42	0	1	96
TAP	42	192	1
HLD	43	0	5	96
TAP	43	192	5
TAP	44	0	1
HLD	44	96	5	480
STR	44	192	1
SCL	44	192	1	96	288	6
TAP	46	0	2
TAP	46	0	4
TAP	46	96	3
TAP	46	96	5
TAP	46	192	2
TAP	46	192	4
TAP	47	0	0
STR	47	96	0
SI_	47	96	0	96	96	4
TAP	48	0	2
TAP	48	0	4
TAP	48	96	3
TAP	48	96	5
TAP	48	192	0
STR	48	288	0
SI_	48	288	0	96	96	4
TAP	49	0	7
STR	49	96	7
SI_	49	96	7	96	96	3
TAP	50	0	0
TAP	50	96	1
TAP	50	96	7
TAP	50	192	0
TAP	50	192	6
TAP	51	0	7
TAP	51	96	0
TAP	51	96	6
TAP	51	192	1
TAP	51	192	7
TAP	52	0	6
TAP	52	96	1
TAP	52	96	7
TAP	52	192	0
TAP	52	192	6
TAP	53	0	1
TAP	53	96	0
TAP	53	96	6
TAP	53	192	1
TAP	53	192	7
TAP	54	0	6
TAP	54	96	5
TAP	54	96	7
TAP	54	192	0
TAP	54	192	6
TAP	55	0	1
TAP	55	96	0
TAP	55	96	2
TAP	55	192	1
TAP	55	192	7
TAP	56	0	2
TAP	56	64	1
TAP	56	128	0
TAP	56	192	7
TAP	56	256	6
TAP	56	336	5
TAP	58	0	3
TAP	58	0	4
TAP	58	96	3
TAP	58	96	4
TAP	58	192	1
TAP	58	192	6
TAP	59	0	1
TAP	59	0	5
TAP	59	96	2
TAP	59	96	6
TAP	59	192	1
TAP	59	192	5
TAP	60	0	0
TAP	60	0	7
TAP	60	96	6
TAP	60	192	0
TAP	60	192	7
TAP	60	288	1
TAP	61	0	0
TAP	61	0	7
TAP	61	96	0
TAP	61	96	7
TAP	61	192	1
TAP	61	192	6
TAP	62	0	3
TAP	62	0	4
TAP	62	96	3
TAP	62	96	4
TAP	62	192	1
TAP	62	192	6
TAP	63	0	1
TAP	63	0	5
TAP	63	96	2
TAP	63	96	6
TAP	63	192	1
TAP	63	192	5
TAP	64	0	0
TAP	64	0	7
TAP	64	96	6
TAP	64	192	0
TAP	64	192	7
TAP	64	288	1
TAP	65	0	0
TAP	65	0	1
STR	65	96	0
SI_	65	96	0	96	96	5
STR	65	96	1
SI_	65	96	1	96	96	4
TAP	66	0	3
TAP	66	0	4
TAP	66	96	3
TAP	66	96	4
TAP	66	192	1
TAP	66	192	6
TAP	67	0	1
TAP	67	0	5
TAP	67	96	2
TAP	67	96	6
TAP	67	192	1
TAP	67	192	5
TAP	68	0	0
TAP	68	0	7
TAP	68	96	1
TAP	68	192	0
TAP	68	192	7
TAP	68	288	6
TAP	69	0	0
TAP	69	0	7
TAP	69	96	0
TAP	69	96	7
TAP	69	192	1
TAP	69	192	6
TAP	70	0	3
TAP	70	0	4
TAP	70	96	3
TAP	70	96	4
TAP	70	192	1
TAP	70	192	6
TAP	71	0	1
TAP	71	0	5
TAP	71	96	2
TAP	71	96	6
TAP	71	192	1
TAP	71	192	5
TAP	72	0	0
TAP	72	0	7
TAP	72	96	1
TAP	72	192	0
TAP	72	192	7
TAP	72	288	6
TAP	73	0	6
TAP	73	0	7
STR	73	96	6
SI_	73	96	6	96	96	3
STR	73	96	7
SI_	73	96	7	96	96	2
TAP	74	0	6
TAP	74	0	7
TAP	74	96	6
TAP	74	96	7
TAP	74	192	1
TAP	74	192	6
TAP	75	0	1
TAP	75	0	7
TAP	75	96	0
TAP	75	96	6
TAP	75	192	1
TAP	75	192	7
TAP	76	0	6
TAP	76	96	6
TAP	76	192	1
TAP	76	288	1
BRK	77	0	0
BRK	77	96	0
BRK	77	192	0
BRK	77	288	0
TAP	78	0	0
TAP	78	0	1
TAP	78	96	0
TAP	78	96	1
TAP	78	192	1
TAP	78	192	6
TAP	79	0	0
TAP	79	0	6
TAP	79	96	1
TAP	79	96	7
TAP	79	192	0
TAP	79	192	6
TAP	80	0	1
TAP	80	96	0
TAP	80	96	1
TAP	80	192	6
TAP	80	288	6
TAP	80	288	7
TAP	81	0	1
TAP	81	96	0
TAP	81	192	1
TAP	81	240	7
TAP	81	288	7

T_REC_TAP	336
T_REC_BRK	13
T_REC_XTP	0
T_REC_HLD	3
T_REC_XHO	0
T_REC_STR	14
T_REC_BST	0
T_REC_XST	0
T_REC_TTP	0
T_REC_THO	0
T_REC_SLD	14
T_REC_ALL	380
T_NUM_TAP	350
T_NUM_BRK	13
T_NUM_HLD	3
T_NUM_SLD	14
T_NUM_ALL	380
T_JUDGE_TAP	363
T_JUDGE_HLD	14
T_JUDGE_SLD	14
T_JUDGE_ALL	391
TTM_EACHPAIRS	119
TTM_SCR_TAP	175000
TTM_SCR_BRK	33800
TTM_SCR_HLD	3000
TTM_SCR_SLD	21000
TTM_SCR_ALL	232800
TTM_SCR_S	224600
TTM_SCR_SS	231500
TTM_RAT_ACV	10056

