VERSION	0.00.00	1.03.00
FES_MODE	0
BPM_DEF	175.000	175.000	175.000	175.000
MET_DEF	4	4
RESOLUTION	384
CLK_DEF	384
COMPATIBLE_CODE	MA2

BPM	0	0	175.000
MET	0	0	4	4

TAP	2	0	7
TAP	3	0	6
TAP	4	0	5
TAP	5	0	4
TAP	6	0	3
TAP	7	0	2
TAP	8	0	1
TAP	8	192	1
TAP	9	0	0
BRK	9	192	0
STR	10	0	1
SI_	10	0	1	96	288	6
TAP	12	0	5
TAP	12	192	5
TAP	13	0	4
TAP	13	0	5
TAP	13	192	4
TAP	13	192	5
STR	14	0	5
SI_	14	0	5	96	288	2
TAP	16	0	2
TAP	16	192	2
TAP	17	0	2
TAP	17	0	3
TAP	17	192	2
TAP	17	192	3
TAP	18	0	3
TAP	18	192	3
HLD	19	0	2	192
TAP	20	0	4
TAP	20	192	4
HLD	21	0	5	192
HLD	22	0	4	192
HLD	23	0	3	192
TAP	24	0	4
TAP	24	192	3
TAP	25	0	3
TAP	25	0	4
TAP	25	192	2
TAP	25	192	5
TAP	26	0	6
TAP	26	192	6
HLD	27	0	6	192
TAP	28	0	1
TAP	28	192	1
HLD	29	0	1	192
HLD	30	0	0	192
HLD	31	0	7	192
TAP	32	0	0
TAP	32	192	7
BRK	33	0	0
BRK	33	0	7
TAP	34	0	1
TAP	35	0	6
TAP	36	0	7
TAP	36	192	6
TAP	37	0	5
TAP	37	192	4
HLD	38	0	3	192
HLD	39	0	4	192
TAP	40	0	3
TAP	40	192	4
TAP	41	0	4
TAP	41	0	5
TAP	41	192	4
TAP	41	192	5
TAP	42	0	6
TAP	43	0	1
HLD	46	0	1	192
HLD	47	0	0	192
TAP	48	0	7
TAP	48	192	7
TAP	49	0	7
TAP	49	96	7
TAP	49	192	7
TAP	50	0	0
TAP	51	0	1
TAP	52	0	2
TAP	53	0	3
HLD	54	0	4	192
HLD	55	0	5	192
TAP	56	0	6
TAP	56	192	7
BRK	57	0	0
BRK	57	0	7
TAP	58	0	1
TAP	58	192	1
TAP	58	192	6
HLD	59	0	2	192
TAP	60	0	2
TAP	60	192	1
TAP	61	0	0
TAP	61	0	1
TAP	61	192	0
TAP	61	192	1
TAP	62	0	6
TAP	62	192	1
TAP	62	192	6
HLD	63	0	5	192
TAP	64	0	5
TAP	64	192	6
TAP	65	0	6
TAP	65	0	7
TAP	65	192	6
TAP	65	192	7
TAP	66	0	1
TAP	66	96	1
TAP	66	192	1
TAP	66	192	6
TAP	67	0	2
TAP	67	96	2
TAP	67	192	2
TAP	68	0	2
TAP	68	192	1
TAP	69	0	0
TAP	69	0	1
BRK	69	192	0
BRK	69	192	1
TAP	70	0	6
TAP	70	96	6
TAP	70	192	1
TAP	70	192	6
TAP	71	0	5
TAP	71	96	5
TAP	71	192	5
TAP	72	0	5
TAP	72	192	6
TAP	73	0	6
TAP	73	0	7
BRK	73	192	6
BRK	73	192	7
HLD	74	0	0	192
HLD	75	0	1	192
HLD	76	0	2	192
TAP	77	0	3
TAP	77	192	3
HLD	78	0	4	192
HLD	79	0	5	192
HLD	80	0	6	192
TAP	81	0	7
TAP	81	192	0
TAP	81	192	7
BRK	81	288	0
BRK	81	288	7

T_REC_TAP	107
T_REC_BRK	11
T_REC_XTP	0
T_REC_HLD	22
T_REC_XHO	0
T_REC_STR	2
T_REC_BST	0
T_REC_XST	0
T_REC_TTP	0
T_REC_THO	0
T_REC_SLD	2
T_REC_ALL	144
T_NUM_TAP	109
T_NUM_BRK	11
T_NUM_HLD	22
T_NUM_SLD	2
T_NUM_ALL	144
T_JUDGE_TAP	120
T_JUDGE_HLD	88
T_JUDGE_SLD	2
T_JUDGE_ALL	210
TTM_EACHPAIRS	24
TTM_SCR_TAP	54500
TTM_SCR_BRK	28600
TTM_SCR_HLD	22000
TTM_SCR_SLD	3000
TTM_SCR_ALL	108100
TTM_SCR_S	103800
TTM_SCR_SS	107000
TTM_RAT_ACV	10102

