VERSION	0.00.00	1.03.00
FES_MODE	0
BPM_DEF	182.300	182.300	182.300	182.300
MET_DEF	4	4
RESOLUTION	384
CLK_DEF	384
COMPATIBLE_CODE	MA2

BPM	0	0	182.300
MET	0	0	4	4

HLD	1	240	2	144
TAP	1	288	7
TAP	1	336	0
TAP	2	0	1
TAP	2	48	2
TAP	2	96	3
TAP	2	144	4
HLD	2	240	5	144
TAP	2	288	0
TAP	2	336	7
TAP	3	0	6
TAP	3	48	5
TAP	3	96	4
TAP	3	144	3
HLD	3	240	0	144
TAP	3	288	7
TAP	3	336	6
TAP	4	0	5
TAP	4	48	0
TAP	4	96	1
TAP	4	144	2
TAP	4	288	0
TAP	4	336	4
TAP	5	0	1
TAP	5	0	5
TAP	5	96	2
TAP	5	96	6
TAP	5	192	3
TAP	5	192	7
TAP	6	0	0
TAP	6	0	7
TAP	6	96	2
TAP	6	144	1
TAP	6	144	3
TAP	6	240	5
TAP	6	288	4
TAP	6	288	6
TAP	7	96	0
TAP	7	192	7
TAP	7	336	1
TAP	7	336	2
TAP	8	48	5
TAP	8	48	6
TAP	8	144	2
TAP	8	144	3
TAP	8	192	4
TAP	8	192	5
STR	9	0	1
SUL	9	0	1	96	96	4
TAP	9	96	5
TAP	9	144	5
TAP	9	288	4
TAP	9	288	5
STR	10	0	5
SUL	10	0	5	96	96	0
TAP	10	96	3
TAP	10	144	3
TAP	10	288	0
TAP	10	288	4
TAP	11	0	0
TAP	11	0	4
TAP	11	144	3
TAP	11	144	7
TAP	11	288	2
TAP	11	288	6
TAP	12	0	1
TAP	12	0	5
TAP	12	192	1
TAP	12	192	6
STR	13	0	0
SUL	13	0	0	96	96	3
STR	13	0	4
SCR	13	0	4	96	96	7
STR	14	0	3
SCL	14	0	3	96	96	0
STR	14	0	7
SUR	14	0	7	96	96	4
STR	14	288	0
SI_	14	288	0	96	96	3
STR	14	288	4
SI_	14	288	4	96	96	7
BRK	16	0	0
BRK	16	0	7
TAP	16	192	3
TAP	16	192	4
TAP	16	288	1
STR	16	336	2
SUL	16	336	2	96	48	5
TAP	17	0	3
TAP	17	48	4
TAP	17	192	3
TAP	17	192	4
STR	17	288	7
SV_	17	288	7	96	48	5
HLD	18	0	1	144
TAP	18	144	5
TAP	18	288	1
TAP	18	288	5
TAP	18	336	2
TAP	18	336	6
TAP	19	0	3
TAP	19	0	7
TAP	19	48	0
TAP	19	48	4
STR	19	192	0
SCL	19	192	0	96	48	6
STR	19	288	4
SCL	19	288	4	96	48	2
TAP	20	96	7
TAP	20	144	3
TAP	20	288	2
TAP	20	288	6
TAP	20	336	1
TAP	20	336	5
TAP	21	0	0
TAP	21	0	4
TAP	21	48	3
TAP	21	48	7
TAP	21	192	3
TAP	21	192	4
STR	21	288	0
SV_	21	288	0	96	48	2
HLD	22	0	6	144
TAP	22	144	2
HLD	22	288	1	192
TAP	22	336	2
TAP	23	0	3
TAP	23	48	4
HLD	23	96	5	192
TAP	23	192	6
TAP	23	240	7
HLD	23	288	0	288
TAP	24	0	6
TAP	24	48	5
TAP	24	96	4
TAP	24	144	3
BRK	24	192	2
TAP	25	0	3
TAP	25	48	4
TAP	25	192	0
TAP	25	192	1
TAP	25	288	4
TAP	26	0	3
TAP	26	144	6
TAP	26	144	7
STR	26	288	0
SI_	26	288	0	96	48	4
TAP	27	0	7
TAP	27	48	5
TAP	27	192	1
TAP	27	192	6
TAP	27	288	0
TAP	28	0	7
TAP	28	144	0
TAP	28	144	7
HLD	28	288	2	240
HLD	29	0	0	288
HLD	29	288	7	384
HLD	30	0	5	144
TAP	30	288	5
TAP	30	336	7
TAP	31	0	4
TAP	31	192	1
TAP	31	192	3
TAP	31	288	5
TAP	31	288	7
TAP	32	0	3
TAP	32	0	4
TAP	32	96	3
TAP	32	96	7
BRK	32	144	0
BRK	32	144	1
STR	33	0	6
SCR	33	0	6	96	96	1
TAP	33	96	5
TAP	33	144	4
STR	33	192	3
SI_	33	192	3	96	96	6
TAP	33	240	2
TAP	33	288	1
TAP	33	336	0
STR	34	0	7
SCL	34	0	7	96	96	4
TAP	34	48	0
TAP	34	96	1
TAP	34	144	2
TAP	34	192	3
TAP	34	240	4
TAP	34	288	1
TAP	34	288	6
STR	35	0	0
SUL	35	0	0	96	96	3
TAP	35	96	4
TAP	35	144	5
TAP	35	192	6
TAP	35	240	7
TAP	35	288	2
TAP	36	0	5
TAP	36	24	4
TAP	36	48	5
TAP	36	72	4
TAP	36	144	2
TAP	36	168	3
TAP	36	192	2
TAP	36	288	1
TAP	36	288	6
STR	37	0	0
SI_	37	0	0	96	48	4
STR	37	144	1
SI_	37	144	1	96	48	3
STR	37	288	5
SI_	37	288	5	96	48	7
TAP	38	144	1
TAP	38	168	7
TAP	38	192	0
TAP	38	240	6
TAP	38	288	4
TAP	38	336	2
STR	39	0	0
SI_	39	0	0	96	48	2
STR	39	144	3
SI_	39	144	3	96	48	7
TAP	39	288	2
TAP	40	0	7
TAP	40	48	0
TAP	40	96	5
TAP	40	144	2
TAP	40	192	6
TAP	40	240	1
TAP	40	288	4
TAP	40	336	3
STR	41	0	6
SI_	41	0	6	96	48	0
TAP	41	48	2
TAP	41	96	3
TAP	41	144	2
STR	41	192	1
SI_	41	192	1	96	48	7
TAP	41	240	5
TAP	41	288	4
TAP	41	336	5
STR	42	0	6
SI_	42	0	6	96	48	0
TAP	42	48	2
TAP	42	96	3
TAP	42	144	2
STR	42	192	1
SI_	42	192	1	96	48	7
TAP	42	240	5
TAP	42	288	4
TAP	42	336	5
TAP	43	0	1
TAP	43	48	5
TAP	43	96	2
TAP	43	144	5
TAP	43	192	3
TAP	43	240	7
TAP	43	288	4
TAP	43	336	0
TAP	44	0	2
TAP	44	24	3
TAP	44	48	2
TAP	44	72	3
TAP	44	144	5
TAP	44	168	4
TAP	44	192	5
TAP	44	288	0
TAP	44	288	7
STR	45	0	0
SCL	45	0	0	96	48	5
STR	45	144	2
SCL	45	144	2	96	48	7
STR	45	288	5
SCR	45	288	5	96	48	0
TAP	46	144	6
TAP	46	168	0
TAP	46	192	7
TAP	46	288	1
TAP	46	336	0
TAP	47	0	5
TAP	47	0	7
TAP	47	144	2
TAP	47	144	4
TAP	47	288	1
TAP	47	288	7
STR	48	0	6
SI_	48	0	6	96	48	3
STR	48	0	7
SI_	48	0	7	96	48	2
STR	48	192	0
SI_	48	192	0	96	48	5
STR	48	192	1
SI_	48	192	1	96	48	4
STR	49	0	6
SCL	49	0	6	96	96	3
TAP	49	96	7
TAP	49	144	0
STR	49	192	1
SCL	49	192	1	96	96	6
TAP	49	240	2
TAP	49	288	3
TAP	49	336	4
STR	50	0	5
SCL	50	0	5	96	96	2
TAP	50	48	6
TAP	50	96	7
TAP	50	144	0
TAP	50	192	1
TAP	50	240	7
TAP	50	288	0
STR	51	0	0
SCL	51	0	0	96	96	5
STR	51	96	5
SCL	51	96	5	96	96	2
STR	51	192	2
SCL	51	192	2	96	96	7
STR	51	288	7
SCL	51	288	7	96	96	4
STR	52	0	4
SCL	52	0	4	96	96	1
STR	52	96	1
SCL	52	96	1	96	48	7
STR	52	288	3
SI_	52	288	3	96	48	6
STR	52	288	7
SI_	52	288	7	96	48	2
STR	53	144	2
SCL	53	144	2	96	72	7
STR	53	144	6
SCL	53	144	6	96	72	3
TAP	54	192	5
TAP	54	192	7
TAP	54	288	2
TAP	54	288	4
TAP	55	0	1
STR	55	0	2
SUL	55	0	2	96	48	5
STR	55	144	6
SCR	55	144	6	96	48	1
TAP	55	288	6
TAP	56	0	1
TAP	56	96	3
TAP	56	96	4
BRK	56	192	1
BRK	56	192	6
STR	57	0	0
SUL	57	0	0	96	96	4
TAP	57	96	5
TAP	57	144	6
STR	57	192	7
SUR	57	192	7	96	96	4
TAP	57	240	3
TAP	57	288	2
TAP	57	336	1
STR	58	0	0
SUR	58	0	0	96	96	5
TAP	58	48	5
TAP	58	96	6
TAP	58	144	7
STR	58	192	7
SUL	58	192	7	96	48	2
STR	59	0	0
SI_	59	0	0	96	48	6
STR	59	96	4
SI_	59	96	4	96	48	2
STR	59	192	1
SI_	59	192	1	96	48	5
STR	60	0	3
SI_	60	0	3	96	48	7
STR	60	96	5
SI_	60	96	5	96	48	1
STR	61	0	1
SI_	61	0	1	96	48	5
BRK	61	0	7
STR	61	144	7
SI_	61	144	7	96	48	3
BRK	61	288	1
TAP	62	0	7
STR	62	192	7
SUR	62	192	7	96	96	4
STR	62	288	4
SUR	62	288	4	96	96	1
TAP	63	0	2
TAP	63	144	2
STR	63	288	2
SCL	63	288	2	96	96	7
STR	64	0	7
SCL	64	0	7	96	96	4
STR	64	96	4
SCL	64	96	4	96	96	1
STR	64	192	1
SUR	64	192	1	96	96	4
TAP	65	0	7
TAP	65	48	6
TAP	65	96	5
TAP	65	144	0
TAP	65	192	1
TAP	65	240	2
TAP	65	288	6
TAP	65	336	5
TAP	66	0	4
TAP	66	48	1
TAP	66	96	2
TAP	66	144	3
TAP	66	192	7
TAP	66	240	0
TAP	66	288	1
TAP	66	288	6
TAP	67	0	1
TAP	67	48	2
TAP	67	96	6
TAP	67	144	5
TAP	67	192	0
TAP	67	240	1
TAP	67	288	7
TAP	67	336	6
TAP	68	0	3
TAP	68	48	2
TAP	68	96	4
TAP	68	144	5
TAP	68	192	1
TAP	68	240	0
BRK	68	288	6
BRK	68	288	7
STR	69	0	7
SI_	69	0	7	96	48	1
STR	69	96	3
SI_	69	96	3	96	48	5
STR	69	192	0
SI_	69	192	0	96	48	4
TAP	69	288	2
STR	70	0	4
SI_	70	0	4	96	48	2
STR	70	96	0
SI_	70	96	0	96	48	6
STR	70	192	3
SI_	70	192	3	96	48	7
TAP	70	288	0
TAP	71	0	0
TAP	71	48	2
TAP	71	96	1
TAP	71	144	3
TAP	71	192	7
TAP	71	240	5
TAP	71	288	6
TAP	71	336	4
BRK	72	0	0
TAP	72	24	7
TAP	72	48	1
TAP	72	72	6
BRK	72	96	0
TAP	72	120	5
TAP	72	144	2
TAP	72	168	7
BRK	72	192	1
TAP	72	216	6
TAP	72	240	0
TAP	72	264	7
BRK	72	288	1
STR	73	0	1
SSR	73	0	1	96	144	5
STR	74	0	6
SSL	74	0	6	96	144	2
STR	75	0	4
SSL	75	0	4	96	144	0
STR	76	0	3
SSR	76	0	3	96	144	7
TAP	76	96	6
TAP	76	192	5
TAP	76	288	4
TAP	77	0	7
TAP	77	96	0
TAP	77	96	1
TAP	77	192	3
TAP	77	288	4
TAP	77	288	5
TAP	78	0	2
TAP	78	96	0
TAP	78	96	1
TAP	78	192	6
TAP	78	288	4
TAP	78	288	5
TAP	79	0	0
TAP	79	0	1
TAP	79	96	2
TAP	79	144	3
TAP	79	192	4
TAP	79	240	5
TAP	79	288	6
TAP	79	336	7
TAP	80	0	0
TAP	80	48	2
TAP	80	72	3
TAP	80	96	1
TAP	80	144	5
TAP	80	168	4
TAP	80	192	6
TAP	80	240	0
TAP	80	264	7
BRK	80	288	0

T_REC_TAP	320
T_REC_BRK	16
T_REC_XTP	0
T_REC_HLD	12
T_REC_XHO	0
T_REC_STR	76
T_REC_BST	0
T_REC_XST	0
T_REC_TTP	0
T_REC_THO	0
T_REC_SLD	76
T_REC_ALL	500
T_NUM_TAP	396
T_NUM_BRK	16
T_NUM_HLD	12
T_NUM_SLD	76
T_NUM_ALL	500
T_JUDGE_TAP	412
T_JUDGE_HLD	51
T_JUDGE_SLD	76
T_JUDGE_ALL	539
TTM_EACHPAIRS	64
TTM_SCR_TAP	198000
TTM_SCR_BRK	41600
TTM_SCR_HLD	12000
TTM_SCR_SLD	114000
TTM_SCR_ALL	365600
TTM_SCR_S	353100
TTM_SCR_SS	364000
TTM_RAT_ACV	10043

